Ссылка на приватное зеркало нашего сайта всего за 1$. Внимание количество ограничено!!!

2 сезон

iTunes

1 сезон

1

iTunes

iTunes

iTunes

1 сезон

RePack

30

ИГРА 18+

pack

ВАЖНО

!!Акция!!

Alien_RageХит недели

RePack

MK11
pack

Забери бонус

RePack

jed

!!Акция!!

Alien_Rage

RePack

fifa19

RePack

Assassins Creed: Odyssey

RePack

NEED FOR SPEED™ PAYBACK

4 сезон

9 сезон

Бесстыжие 9 сезон

Все сериалы

все сериалы на PB.wtf

RePack

FAR CRY 5
  

Луи Сир / Louis Cyr (Дэниэл Роби) [2013 г., драма, биография, история, HDRip, Любительский одноголосый] pb.wtf

Луи Сир через торрент pb.wtf

Размер: 1.47 GB | Добавлен: 6 лет 5 мес. назад | Торрент скачан:49 раз
Скачать  

03-05-2014 16:46 Луи Сир Скачать торрент  

Луи Сир / Louis Cyr
Год выпуска: 2013
Страна: Канада / Christal Films
Жанр: драма, биография, история
Продолжительность: 02:10:32
Перевод: Любительский одноголосый (R.A.I.M)

Режиссер: Дэниэл Роби

В ролях: Антуан Бертран, Жильбер Сикотт, Росе-Майте Эркорека, Гийом Кир, Джил Беллоуз, Элен Ганьон, Норманд Карьер, Амели Гренье

Описание: Канадского борца Луи Сира часто называют самым сильным человеком всех времён. Уже в детстве он поражал окружающих своими способностями. Его достижения на спортивной арене поражают воображение, а некоторые рекорды не побиты до сих пор. Так, например, Луи мог поднять и удержать на спине вес почти в две тонны! Но несмотря на свою силу, Луи оставался крайне уязвимым человеком, который свои самые трудные победы одержал вне спортивной арены.

Качество: HDRip
Формат: AVI
Видео кодек: XviD
Аудио кодек: AC3
Видео: 720x304 (2.37:1), 23.976 fps, XviD build 50 ~1151 kbps avg, 0.22 bit/pixel
Аудио: 48 kHz, AC3 Dolby Digital, 3/2 (L,C,R,l,r) + LFE ch, ~448 kbps


Общее
Полное имя : H:\кино\Louis.Cyr.2013.HDRip.avi
Формат : AVI
Формат/Информация : Audio Video Interleave
Размер файла : 1,47 Гбайт
Продолжительность : 2 ч. 10 м.
Общий поток : 1609 Кбит/сек
Название фильма : Louis.Cyr.2013.HDRip.avi
Режиссёр : by coc900
Программа кодирования : VirtualDubMod 1.5.10.3 | www.virtualdub-fr.org || (build 2550/release)

Видео
Идентификатор : 0
Формат : MPEG-4 Visual
Профиль формата : Advanced Simple@L5
Параметр BVOP формата : 2
Параметр QPel формата : Нет
Параметр GMC формата : Без точки перехода
Параметр матрицы формата : Default (H.263)
Идентификатор кодека : XVID
Идентификатор кодека/Подсказка : XviD
Продолжительность : 2 ч. 10 м.
Битрейт : 1152 Кбит/сек
Ширина : 720 пикселей
Высота : 304 пикселя
Соотношение сторон : 2,35:1
Частота кадров : 23,976 кадра/сек
Цветовое пространство : YUV
Субдискретизация насыщенности : 4:2:0
Битовая глубина : 8 бит
Тип развёртки : Прогрессивная
Метод сжатия : С потерями
Бит/(Пиксели*Кадры) : 0.219
Размер потока : 1,05 Гбайт (72%)
Библиотека кодирования : XviD 1.2.1 (UTC 2008-12-04)

Аудио
Идентификатор : 1
Формат : AC-3
Формат/Информация : Audio Coding 3
Расширение режима : CM (complete main)
Параметр Endianness формата : Big
Идентификатор кодека : 2000
Продолжительность : 2 ч. 10 м.
Вид битрейта : Постоянный
Битрейт : 448 Кбит/сек
Каналы : 6 каналов
Расположение каналов : Front: L C R, Side: L R, LFE
Частота : 48,0 КГц
Битовая глубина : 16 бит
Метод сжатия : С потерями
Размер потока : 418 Мбайт (28%)
Выравнивание : Разделение по промежуткам
Продолжительность промежутка : 42 мс. (1,00 видеокадр)
Время предзагрузки промежутка : 500 мс.

pb.wtf



Скачать Луи Сир через торрент http://i56.fastpic.ru/big/2014/0503/71/af381161662d202e5d6a3ca39985f971.jpg Скачать фильм Луи Сир через торрент бесплантно в хорошем качестве Описание: Канадского борца Луи Сира часто называют самым сильным человеком всех времён. Уже в детстве он поражал окружающих своими ... 7.5 10 2
Торрент: Зарегистрирован [2014-05-03 16:46] · скачан: 49 раз
Статус: T временная
Размер: 1.47 GB
Как cкачать? Как скачать Луи Сир через торрент | qTorrent

28-11-2019 20:33  

Отключить всю рекламу на сайте

    Дорогой пользователь! Огромная просьба, поблагодарите релизера, оцените раздачу и оставьте свои комментарий, если Вы скачали Луи Сир через торрент бесплатно! Внесите свою лепту в развитие PiratBit!
    Комментировать посты могут только пользователи прошедшие не сложную регистрацию
    Показать сообщения:    

    Луи Сир через торрент
    Скачать бесплатно Луи Сир
    Луи Сир скачать торрент
    Луи Сир смотреть онлайн
    Cкачать фильм Луи Сир бесплатно
    Луи Сир скачать торрент в хорошем качестве
    Луи Сир смотреть онлайн бесплатно в хорошем качестве


    Вы не можете начинать темы
    Вы не можете отвечать на сообщения
    Вы не можете редактировать свои сообщения
    Вы не можете удалять свои сообщения
    Вы не можете голосовать в опросах
    Вы не можете прикреплять файлы к сообщениям
    Вы можете скачивать файлы