Ссылка на приватное зеркало нашего сайта всего за 1$. Внимание количество ограничено!!!

2 сезон

iTunes

1 сезон

1

iTunes

iTunes

iTunes

1 сезон

RePack

30

ИГРА 18+

pack

ВАЖНО

!!Акция!!

Alien_RageХит недели

RePack

MK11
pack

Забери бонус

RePack

jed

!!Акция!!

Alien_Rage

RePack

fifa19

RePack

Assassins Creed: Odyssey

RePack

NEED FOR SPEED™ PAYBACK

4 сезон

9 сезон

Бесстыжие 9 сезон

Все сериалы

все сериалы на PB.wtf

RePack

FAR CRY 5
  

Я, Франкенштейн / I, Frankenstein (Стюарт Битти / Stuart Beattie) [2013 г., Фэнтези, боевик, приключения, BDRip 720p] [US Transfer] DUB Лицензия pb.wtf

Я, Франкенштейн через торрент pb.wtf

Размер: 6.14 GB | Добавлен: 6 лет 5 мес. назад | Торрент скачан:297 раз
Скачать  

03-05-2014 18:02 Я, Франкенштейн Скачать торрент  

Я, Франкенштейн / I, Frankenstein
Год выпуска: 2013
Страна: США, Австралия / Hopscotch Features, Lakeshore Entertainment, Sidney Kimmel Entertainment
Жанр: Фэнтези, боевик, приключения
Продолжительность: 01:32:23
Перевод: Дубляж [Лицензия]
Субтитры: Русские, английские (Full + SDH)

Режиссер: Стюарт Битти / Stuart Beattie



В ролях: Аарон Экхарт, Ивонн Страховски, Билл Найи, Джей Кортни, Миранда Отто, Кэйтлин Стэйси, Кевин Гревье, Аден Янг, Дениз Акдениз, Крис Пэнг, Вирджиния Ле Брун

Описание: Монстр Адам, созданный доктором Франкенштейном, благодаря своим уникальным генам доживает до наших дней. Оказавшись в мрачном готическом метрополисе, он попадает в самую гущу вековой войны между двумя кланами бессмертных существ... Мрачное порождение Виктора Франкенштейна живёт уединённой жизнью, понимая, что он другой, и что ему не место среди простых людей. Впрочем, пока не натыкается на гаргулий.... Да, если бы не демоны, которым Адам нужен в виде подопытной крысы, он бы никогда не вернулся из добровольной ссылки. Возвращение Адама превращает зыбкое равновесие в войну на истребление. Сам он оказывается в эпицентре конфликта, и, не осознавая, что является ключевой фигурой в игре вечных противников, яростно вступает в схватку с адскими тварями...

Качество: BDRip 720p
Формат: MKV
Видео кодек: H.264
Аудио кодек: AC3
Видео: 1280x534 (2,40:1), 23,976 fps, 8242 Кbps, 0.503 bit/pixel
Аудио#1: 48 kHz, AC3 Dolby Digital, 3/2 (L,C,R,l,r) + LFE ch, 640.00 kbps | RUS
Аудио#2: 48 kHz, AC3 Dolby Digital, 3/2 (L,C,R,l,r) + LFE ch, 640.00 kbps | ENG

Релиз группы:
Автор рипа: potroks

Общее
Уникальный идентификатор : 231771043122226723578266788090051141365 (0xAE5D7AAE1A49B16E84C9CD83D9759EF5)
Полное имя : Ya.Frankenshteyn.2013.US.DUAL.BDRip.720p.-HELLYWOOD.mkv
Формат : Matroska
Версия формата : Version 4 / Version 2
Размер файла : 6,14 Гбайт
Продолжительность : 1 ч. 32 м.
Общий поток : 9522 Кбит/сек
Название фильма : HELLYWOOD - rip by potroks
Дата кодирования : UTC 2014-05-03 17:23:32
Программа кодирования : mkvmerge v5.9.0 ('On The Loose') built on Dec 15 2012 16:39:58
Библиотека кодирования : libebml v1.3.0 + libmatroska v1.4.0

Видео
Идентификатор : 1
Формат : AVC
Формат/Информация : Advanced Video Codec
Профиль формата : High@L4.1
Параметр CABAC формата : Да
Параметр ReFrames формата : 9 кадров
Идентификатор кодека : V_MPEG4/ISO/AVC
Продолжительность : 1 ч. 32 м.
Битрейт : 8242 Кбит/сек
Ширина : 1280 пикселей
Высота : 534 пикселя
Соотношение сторон : 2,40:1
Режим частоты кадров : Постоянный
Частота кадров : 23,976 кадра/сек
Цветовое пространство : YUV
Субдискретизация насыщенности : 4:2:0
Битовая глубина : 8 бит
Тип развёртки : Прогрессивная
Бит/(Пиксели*Кадры) : 0.503
Размер потока : 5,20 Гбайт (85%)
Заголовок : I, Frankenstein
Библиотека кодирования : x264 core 130 r2273 b3065e6
Настройки программы : cabac=1 / ref=9 / deblock=1:-2:-2 / analyse=0x3:0x133 / me=umh / subme=11 / psy=1 / psy_rd=1.05:0.00 / mixed_ref=1 / me_range=32 / chroma_me=1 / trellis=2 / 8x8dct=1 / cqm=0 / deadzone=21,11 / fast_pskip=0 / chroma_qp_offset=-2 / threads=9 / lookahead_threads=6 / sliced_threads=0 / nr=0 / decimate=0 / interlaced=0 / bluray_compat=0 / constrained_intra=0 / bframes=10 / b_pyramid=2 / b_adapt=2 / b_bias=0 / direct=3 / weightb=1 / open_gop=0 / weightp=2 / keyint=250 / keyint_min=23 / scenecut=40 / intra_refresh=0 / rc_lookahead=60 / rc=2pass / mbtree=0 / bitrate=8242 / ratetol=1.0 / qcomp=0.70 / qpmin=0 / qpmax=69 / qpstep=4 / cplxblur=20.0 / qblur=0.5 / vbv_maxrate=50000 / vbv_bufsize=62500 / nal_hrd=none / ip_ratio=1.35 / pb_ratio=1.25 / aq=1:0.80
Язык : English
Default : Да
Forced : Нет

Аудио #1
Идентификатор : 2
Формат : AC-3
Формат/Информация : Audio Coding 3
Расширение режима : CM (complete main)
Параметр Endianness формата : Big
Идентификатор кодека : A_AC3
Продолжительность : 1 ч. 32 м.
Вид битрейта : Постоянный
Битрейт : 640 Кбит/сек
Каналы : 6 каналов
Расположение каналов : Front: L C R, Side: L R, LFE
Частота : 48,0 КГц
Битовая глубина : 16 бит
Метод сжатия : С потерями
Размер потока : 423 Мбайт (7%)
Заголовок : Dub | DD 5.1 @ 640 kbps
Язык : Russian
Default : Да
Forced : Да

Аудио #2
Идентификатор : 3
Формат : AC-3
Формат/Информация : Audio Coding 3
Расширение режима : CM (complete main)
Параметр Endianness формата : Big
Идентификатор кодека : A_AC3
Продолжительность : 1 ч. 32 м.
Вид битрейта : Постоянный
Битрейт : 640 Кбит/сек
Каналы : 6 каналов
Расположение каналов : Front: L C R, Side: L R, LFE
Частота : 48,0 КГц
Битовая глубина : 16 бит
Метод сжатия : С потерями
Размер потока : 423 Мбайт (7%)
Заголовок : Original | DD 5.1 @ 640 kbps
Язык : English
Default : Нет
Forced : Нет

Текст #1
Идентификатор : 4
Формат : UTF-8
Идентификатор кодека : S_TEXT/UTF8
Идентификатор кодека/Информация : UTF-8 Plain Text
Язык : Russian
Default : Нет
Forced : Нет

Текст #2
Идентификатор : 5
Формат : UTF-8
Идентификатор кодека : S_TEXT/UTF8
Идентификатор кодека/Информация : UTF-8 Plain Text
Заголовок : Full
Язык : English
Default : Нет
Forced : Нет

Текст #3
Идентификатор : 6
Формат : UTF-8
Идентификатор кодека : S_TEXT/UTF8
Идентификатор кодека/Информация : UTF-8 Plain Text
Заголовок : SDH
Язык : English
Default : Нет
Forced : Нет

Меню
00:02:28.857 : en:(01)00:02:28:857
00:04:56.421 : en:(02)00:04:56:421
00:09:19.767 : en:(03)00:09:19:767
00:12:02.471 : en:(04)00:12:02:471
00:17:39.725 : en:(05)00:17:39:725
00:21:26.994 : en:(06)00:21:26:994
00:24:58.497 : en:(07)00:24:58:497
00:29:42.614 : en:(08)00:29:42:614
00:33:49.569 : en:(09)00:33:49:569
00:37:56.274 : en:(10)00:37:56:274
00:43:54.632 : en:(11)00:43:54:632
00:48:23.233 : en:(12)00:48:23:233
00:52:29.187 : en:(13)00:52:29:187
00:56:04.736 : en:(14)00:56:04:736
00:59:56.301 : en:(15)00:59:56:301
01:06:15.513 : en:(16)01:06:15:513
01:08:58.467 : en:(17)01:08:58:467
01:12:59.333 : en:(18)01:12:59:333
01:16:24.538 : en:(19)01:16:24:538
01:20:22.859 : en:(20)01:20:22:859
01:22:00.665 : en:(21)01:22:00:665
01:32:23.538 : en:(22)01:32:23:538

pb.wtf



Скачать Я, Франкенштейн через торрент http://pic.kartinco.top/images/6/6d27p.jpg Скачать фильм Я, Франкенштейн через торрент бесплантно в хорошем качестве Описание: Монстр Адам, созданный доктором Франкенштейном, благодаря своим уникальным генам доживает до наших дней. Оказавшись в мрачном ... 8.6 10 8
Info! Золотая раздача, скачанное не засчитывается.
Торрент: Зарегистрирован [2014-05-03 18:02] · скачан: 297 раз
Статус: √ проверено
Размер: 6.14 GB
Как cкачать? Как скачать Я, Франкенштейн через торрент | qTorrent

% Раздел Тема Автор DL S | L
Фильмы 2013 [DVDrip, WEB-DLRip, HDrip] [ 1.46 GB ] Я Франкенштейн / I Frankenstein [2013 BDRip-AVC] [US Transfer] DUB potroks Скачать
1 | 0
Фильмы 2013 [DVDrip, WEB-DLRip, HDrip] [ 2.18 GB ] Я Франкенштейн / I Frankenstein [2013 BDRip-AVC] [US Transfer] DUB potroks Скачать
1 | 0

28-11-2019 20:33  

Отключить всю рекламу на сайте

    Дорогой пользователь! Огромная просьба, поблагодарите релизера, оцените раздачу и оставьте свои комментарий, если Вы скачали Я, Франкенштейн через торрент бесплатно! Внесите свою лепту в развитие PiratBit!
    Комментировать посты могут только пользователи прошедшие не сложную регистрацию
    Показать сообщения:    

    Я, Франкенштейн через торрент
    Скачать бесплатно Я, Франкенштейн
    Я, Франкенштейн скачать торрент
    Я, Франкенштейн смотреть онлайн
    Cкачать фильм Я, Франкенштейн бесплатно
    Я, Франкенштейн скачать торрент в хорошем качестве
    Я, Франкенштейн смотреть онлайн бесплатно в хорошем качестве


    Вы не можете начинать темы
    Вы не можете отвечать на сообщения
    Вы не можете редактировать свои сообщения
    Вы не можете удалять свои сообщения
    Вы не можете голосовать в опросах
    Вы не можете прикреплять файлы к сообщениям
    Вы можете скачивать файлы