Ссылка на приватное зеркало нашего сайта всего за 1$. Внимание количество ограничено!!!

2 сезон

iTunes

1 сезон

1

iTunes

iTunes

iTunes

1 сезон

RePack

30

ИГРА 18+

pack

ВАЖНО

!!Акция!!

Alien_RageХит недели

RePack

MK11
pack

Забери бонус

RePack

jed

!!Акция!!

Alien_Rage

RePack

fifa19

RePack

Assassins Creed: Odyssey

RePack

NEED FOR SPEED™ PAYBACK

4 сезон

9 сезон

Бесстыжие 9 сезон

Все сериалы

все сериалы на PB.wtf

RePack

FAR CRY 5
  

Чужие на районе / Attack the Block (Джо Корниш / Joe Cornish) [2011, Великобритания, Франция, фантастика, боевик, комедия, BDRip 720p,Профессиональный (многоголосый, закадровый) pb.wtf

Чужие на районе через торрент pb.wtf

Размер: 4.37 GB | Добавлен: 6 лет 5 мес. назад | Торрент скачан:86 раз
Скачать  

03-05-2014 20:05 Чужие на районе Скачать торрент  

Чужие на районе / Attack the Block
«Реальные пацаны против пришельцев»


  • Год выпуска: 2011
  • Страна: Великобритания, Франция
  • Жанр: фантастика, боевик, комедия
  • Продолжительность: 01:27:44
  • Перевод: Профессиональный (многоголосый, закадровый)
  • Субтитры: Rus:Eng
  • Режиссер: Джо Корниш / Joe Cornish
  • В ролях:

    Джоди Уиттакер (Sam), Джон Бойега (Moses), Алекс Эсмейл (Pest), Франц Драмех (Dennis), Лион Джонс (Jerome), Саймон Ховард (Biggz), Люк Тредэвэй (Brewis), Джумэйн Хантер (Hi-Hatz), Ник Фрост (Ron), Мэгги МакКарти (Margaret), Даниэль Виталис (Tia), Пейдж Миде (Dimples)

  • Описание:
    Инопланетное вторжение начинается... Но на этот раз пришельцев угораздило приземлиться не в том районе! Здесь всем заправляют реальные пацаны. Теперь они - последняя надежда человечества. Самые опасные существа во вселенной столкнутся с абсолютным злом. Кто кого?
  • Рейтинг
    kinopoisk.ru: 5.984 (6111)
    imdb.com: 6.60 (66 194)
    MPAA: R - Лицам до 17 лет обязательно присутствие взрослого
  • Качество: BDRip 720p
  • Формат: MKV
  • Видео кодек: AVC
  • Аудио кодек: AC3
  • Видео: AVC, 1280x534 (2.40:1), 6488 kbps, 24 fps, 0,396 bpp
  • Аудио №1: русский / AC3 / 5.1 / 48 kHz / 256 kbps / 16 bit |Проф.Многолос|
  • Аудио №2: русский / AC3 / 5.1 / 48 kHz / 256 kbps / 16 bit |Профи.Многоголос+Цензура|
  • Аудио №3: английский / AC3 / 2.0 / 48 kHz / 128 kbps / 16 bit | OriGinaL <> English|
  • Релиз от: ஐ-Best is the Best-ஐ
    General
    Unique ID : 205339622407143700683314577575961853772 (0x9A7AF9068EB4888FA7108BC719CE7F4C)
    Complete name : F:\Chuzhie.na.rayone.2011.x264.BDRip.720p.mkv
    Format : Matroska
    Format version : Version 1
    File size : 4.37 GiB
    Duration : 1h 27mn
    Overall bit rate : 7 128 Kbps
    Movie name : Чужие на районе / Attack the Block (2011) BDRip 720p - firebit.org
    Encoded date : UTC 2011-11-25 23:55:21
    Writing application : mkvmerge v2.3.0 ('Freak U') built on Sep 8 2008 18:32:16
    Writing library : libebml v0.7.7 + libmatroska v0.8.1

    Video
    ID : 1
    Format : AVC
    Format/Info : Advanced Video Codec
    Format profile : High@L4.1
    Format settings, CABAC : Yes
    Format settings, ReFrames : 12 frames
    Codec ID : V_MPEG4/ISO/AVC
    Duration : 1h 27mn
    Bit rate : 6 488 Kbps
    Width : 1 280 pixels
    Height : 534 pixels
    Display aspect ratio : 2.40:1
    Frame rate : 24.000 fps
    Color space : YUV
    Chroma subsampling : 4:2:0
    Bit depth : 8 bits
    Scan type : Progressive
    Bits/(Pixel*Frame) : 0.396
    Stream size : 3.89 GiB (89%)
    Writing library : x264 core 118 r2085 8a62835
    Encoding settings : cabac=1 / ref=12 / deblock=1:-3:-3 / analyse=0x3:0x113 / me=esa / subme=10 / psy=1 / psy_rd=1.15:0.00 / mixed_ref=1 / me_range=16 / chroma_me=1 / trellis=2 / 8x8dct=1 / cqm=0 / deadzone=21,11 / fast_pskip=0 / chroma_qp_offset=-2 / threads=6 / sliced_threads=0 / nr=0 / decimate=0 / interlaced=0 / bluray_compat=0 / constrained_intra=0 / bframes=7 / b_pyramid=2 / b_adapt=2 / b_bias=0 / direct=3 / weightb=1 / open_gop=0 / weightp=2 / keyint=250 / keyint_min=24 / scenecut=40 / intra_refresh=0 / rc=2pass / mbtree=0 / bitrate=6488 / ratetol=1.0 / qcomp=0.60 / qpmin=0 / qpmax=69 / qpstep=4 / cplxblur=20.0 / qblur=0.5 / ip_ratio=1.40 / pb_ratio=1.30 / aq=1:0.65
    Language : English
    Default : Yes
    Forced : No

    Audio #1
    ID : 2
    Format : AC-3
    Format/Info : Audio Coding 3
    Mode extension : CM (complete main)
    Codec ID : A_AC3
    Duration : 1h 27mn
    Bit rate mode : Constant
    Bit rate : 256 Kbps
    Channel(s) : 6 channels
    Channel positions : Front: L C R, Side: L R, LFE
    Sampling rate : 48.0 KHz
    Bit depth : 16 bits
    Compression mode : Lossy
    Stream size : 161 MiB (4%)
    Language : Russian
    Default : Yes
    Forced : No

    Audio #2
    ID : 3
    Format : AC-3
    Format/Info : Audio Coding 3
    Mode extension : CM (complete main)
    Codec ID : A_AC3
    Duration : 1h 27mn
    Bit rate mode : Constant
    Bit rate : 256 Kbps
    Channel(s) : 6 channels
    Channel positions : Front: L C R, Side: L R, LFE
    Sampling rate : 48.0 KHz
    Bit depth : 16 bits
    Compression mode : Lossy
    Stream size : 161 MiB (4%)
    Language : Russian
    Default : No
    Forced : No

    Audio #3
    ID : 4
    Format : AC-3
    Format/Info : Audio Coding 3
    Mode extension : CM (complete main)
    Codec ID : A_AC3
    Duration : 1h 27mn
    Bit rate mode : Constant
    Bit rate : 128 Kbps
    Channel(s) : 2 channels
    Channel positions : Front: L R
    Sampling rate : 48.0 KHz
    Bit depth : 16 bits
    Compression mode : Lossy
    Stream size : 80.3 MiB (2%)
    Language : English
    Default : No
    Forced : No

    Text #1
    ID : 5
    Format : UTF-8
    Codec ID : S_TEXT/UTF8
    Codec ID/Info : UTF-8 Plain Text
    Language : English
    Default : Yes
    Forced : No

    Text #2
    ID : 6
    Format : UTF-8
    Codec ID : S_TEXT/UTF8
    Codec ID/Info : UTF-8 Plain Text
    Language : Russian
    Default : No
    Forced : No

    Text #3
    ID : 7
    Format : UTF-8
    Codec ID : S_TEXT/UTF8
    Codec ID/Info : UTF-8 Plain Text
    Language : English
    Default : No
    Forced : No

    Text #4
    ID : 8
    Format : UTF-8
    Codec ID : S_TEXT/UTF8
    Codec ID/Info : UTF-8 Plain Text
    Language : English
    Default : No
    Forced : No

    Menu
    00:00:00.000 : :00:00:00.000
    00:08:12.708 : :00:08:12.708
    00:16:05.250 : :00:16:05.250
    00:21:54.125 : :00:21:54.125
    00:29:45.542 : :00:29:45.542
    00:37:39.000 : :00:37:39.000
    00:41:27.583 : :00:41:27.583
    00:50:21.250 : :00:50:21.250
    01:00:51.333 : :01:00:51.333
    01:06:26.958 : :01:06:26.958
    01:13:33.125 : :01:13:33.125
    01:20:06.042 : :01:20:06.042

    Скриншоты:


    pb.wtf



  • Скачать Чужие на районе через торрент http://i55.fastpic.ru/big/2014/0503/5e/113cc92c41da5d1c9c5e10d499d1555e.jpg Скачать фильм Чужие на районе через торрент бесплантно в хорошем качестве Описание: Инопланетное вторжение начинается... Но на этот раз пришельцев угораздило приземлиться не в том районе! Здесь всем заправляют ... 10 10 5
    Торрент: Зарегистрирован [2014-05-03 20:05] · скачан: 86 раз
    Статус: √ проверено
    Размер: 4.37 GB
    Как cкачать? Как скачать Чужие на районе через торрент | qTorrent

    % Раздел Тема Автор DL S | L
    Фильмы 2011 [ 1.37 GB ] Чужие на районе / Attack the Block [2011 HDRip] TekkenxD Скачать
    1 | 0
    Фильмы 2011 [ 1.4 GB ] Чужие на районе / Attack the Block [2011 BDRip лицензия] coc900 Скачать
    1 | 0
    Фильмы 2011 [ 1.37 GB ] Чужие на районе / Attack the Block [2011 HDRip] WISE Скачать
    1 | 0
    Фильмы [HD 720p, 1080p] (Хороший звук DUB, MVO) [ 8.23 GB ] Чужие на районе / Attack the Block [2011 BDRip ] m9sо Скачать
    1 | 0
    Фильмы (DVD фильмы) [ 5.98 GB ] Чужие на районе / Attack the Block [2011 DVD9] R5 «Вольга» voovaz Скачать
    1 | 0
    Фильмы 2011 [ 700 MB ] Чужие на районе / Attack the Block [2011 HDRip лицензия] 700mb SD Скачать
    1 | 0
    Фильмы 2011 [ 1.96 GB ] Чужие на районе / Attack the Block [2011 BDRip-AVC лицензия] -=Cherry=- Скачать
    1 | 0

    28-11-2019 20:33  

    Отключить всю рекламу на сайте

      Дорогой пользователь! Огромная просьба, поблагодарите релизера, оцените раздачу и оставьте свои комментарий, если Вы скачали Чужие на районе через торрент бесплатно! Внесите свою лепту в развитие PiratBit!
      Комментировать посты могут только пользователи прошедшие не сложную регистрацию
      Показать сообщения:    

      Чужие на районе через торрент
      Скачать бесплатно Чужие на районе
      Чужие на районе скачать торрент
      Чужие на районе смотреть онлайн
      Cкачать фильм Чужие на районе бесплатно
      Чужие на районе скачать торрент в хорошем качестве
      Чужие на районе смотреть онлайн бесплатно в хорошем качестве


      Вы не можете начинать темы
      Вы не можете отвечать на сообщения
      Вы не можете редактировать свои сообщения
      Вы не можете удалять свои сообщения
      Вы не можете голосовать в опросах
      Вы не можете прикреплять файлы к сообщениям
      Вы можете скачивать файлы