Ссылка на приватное зеркало нашего сайта всего за 1$. Внимание количество ограничено!!!

2 сезон

iTunes

1 сезон

1

iTunes

iTunes

iTunes

1 сезон

RePack

30

ИГРА 18+

pack

ВАЖНО

!!Акция!!

Alien_RageХит недели

RePack

MK11
pack

Забери бонус

RePack

jed

!!Акция!!

Alien_Rage

RePack

fifa19

RePack

Assassins Creed: Odyssey

RePack

NEED FOR SPEED™ PAYBACK

4 сезон

9 сезон

Бесстыжие 9 сезон

Все сериалы

все сериалы на PB.wtf

RePack

FAR CRY 5
  

Ребята с улицы / Boyz n the Hood (Джон Синглтон / John Singleton) [1991, США, драма, криминал, BDRip 720p,Профессиональный (многоголосый, закадровый)MVO+Gavrilov+Originl pb.wtf

Ребята с улицы через торрент pb.wtf

Размер: 5.76 GB | Добавлен: 6 лет 5 мес. назад | Торрент скачан:30 раз
Скачать  

03-05-2014 20:58 Ребята с улицы Скачать торрент  

Ребята с улицы / Boyz n the Hood
«Once upon a time in South Central L.A. ... It ain't no fairy tale»


  • Год выпуска: 1991
  • Страна: США
  • Жанр: драма, криминал
  • Продолжительность: 01:52:07
  • Перевод: Профессиональный (многоголосый, закадровый)
  • Субтитры: Eng
  • Режиссер: Джон Синглтон / John Singleton
  • В ролях:

    Кьюба Гудинг мл. (Tre Styles), Айс Кьюб (Doughboy / Darren), Моррис Честнат (Ricky Baker), Лоренс Фишбёрн (Furious Styles), Анджела Бассетт (Reva Styles), Ниа Лонг (Brandi), Тайра Феррелл (Mrs. Baker), Реджи Грин (Chris), Алисия Роджерс (Shanice), Дедрик Д. Гоберт (Dooky), Реджина Кинг (Shalika), Джон Котрэн (Lewis Crump)

  • Описание:
    Если вы хотите жить, вам не стоит соваться в лос-анджелесский квартал Южный Централ. Это очень опасное место, где обитают сплошь крутые черные парни - такие, например, как Тре и сводные братья Рики и Дагбой.
    Ежедневно варящиеся в этой адской кухне, заполненной насилием, невежеством и злобой, раю для наркоманов и убийц, они, кажется просто обречены пополнить ряды подонков общества и закончить свои дни с пулей в спине или со шприцом в вене.
    Но надежда вырваться из этого жуткого мира - и не ногами вперед - не покидает героев. Только вот Южный Централ не очень-то легко отпускает своих жертв...
  • Рейтинг
    kinopoisk.ru: 7.766 (3216)
    imdb.com: 7.80 (72 175)
    MPAA: R - Лицам до 17 лет обязательно присутствие взрослого
  • Качество: BDRip 720p
  • Формат: MKV
  • Видео кодек: AVC
  • Аудио кодек: AC3
  • Видео: AVC, 1280x696 (16:9), 5466 kbps, 23,976 fps, 0,256 bpp
  • Аудио №1: русский / AC3 / 2.0 / 48 kHz / 192 kbps / 16 bit |Многоголосный. ПРОФ|
  • Аудио №2: русский / AC3 / 2.0 / 48 kHz / 192 kbps / 16 bit |Гаврилов|
  • Аудио №3: английский / DTS / 5.1 / 48 kHz / 1510 kbps / 24 bit
  • Релиз от: ஐ-Best is the Best-ஐ
    Общее
    Уникальный идентификатор : 228478016055388955154168778893618942632 (0xABE343E918CD20B78DCB73887CC592A8)
    Полное имя : F:\Boyz.n.the.Hood.1991.720p.BDRip.x264.Rus.Eng.mkv
    Формат : Matroska
    Версия формата : Version 2
    Размер файла : 5,76 Гбайт
    Продолжительность : 1 ч. 52 м.
    Общий поток : 7357 Кбит/сек
    Дата кодирования : UTC 2011-07-13 17:42:27
    Программа кодирования : mkvmerge v4.6.0 ('Still Crazy After All These Years') built on Mar 10 2011 02:50:32
    Библиотека кодирования : libebml v1.2.0 + libmatroska v1.1.0

    Видео
    Идентификатор : 1
    Формат : AVC
    Формат/Информация : Advanced Video Codec
    Профиль формата : High@L4.1
    Параметр CABAC формата : Да
    Параметр ReFrames формата : 5 кадров
    Идентификатор кодека : V_MPEG4/ISO/AVC
    Продолжительность : 1 ч. 52 м.
    Битрейт : 5466 Кбит/сек
    Ширина : 1280 пикселей
    Высота : 696 пикселей
    Соотношение сторон : 1,85:1
    Режим частоты кадров : Постоянный
    Частота кадров : 23,976 кадра/сек
    Цветовое пространство : YUV
    Субдискретизация насыщенности : 4:2:0
    Битовая глубина : 8 бит
    Тип развёртки : Прогрессивная
    Бит/(Пиксели*Кадры) : 0.256
    Размер потока : 4,17 Гбайт (72%)
    Библиотека кодирования : x264 core 115 r2008 4c552d8
    Настройки программы : cabac=1 / ref=5 / deblock=1:0:0 / analyse=0x3:0x113 / me=umh / subme=8 / psy=1 / psy_rd=1.00:0.00 / mixed_ref=1 / me_range=16 / chroma_me=1 / trellis=1 / 8x8dct=1 / cqm=0 / deadzone=21,11 / fast_pskip=1 / chroma_qp_offset=-2 / threads=12 / sliced_threads=0 / nr=0 / decimate=1 / interlaced=0 / bluray_compat=0 / constrained_intra=0 / bframes=3 / b_pyramid=2 / b_adapt=2 / b_bias=0 / direct=3 / weightb=1 / open_gop=0 / weightp=2 / keyint=240 / keyint_min=24 / scenecut=40 / intra_refresh=0 / rc_lookahead=50 / rc=2pass / mbtree=1 / bitrate=5466 / ratetol=1.0 / qcomp=0.60 / qpmin=0 / qpmax=69 / qpstep=4 / cplxblur=20.0 / qblur=0.5 / ip_ratio=1.40 / aq=1:1.00
    Язык : English
    Default : Да
    Forced : Нет

    Аудио #1
    Идентификатор : 2
    Формат : AC-3
    Формат/Информация : Audio Coding 3
    Расширение режима : CM (complete main)
    Параметр Endianness формата : Big
    Идентификатор кодека : A_AC3
    Продолжительность : 1 ч. 52 м.
    Вид битрейта : Постоянный
    Битрейт : 192 Кбит/сек
    Каналы : 2 канала
    Расположение каналов : Front: L R
    Частота : 48,0 КГц
    Битовая глубина : 16 бит
    Метод сжатия : С потерями
    Размер потока : 154 Мбайт (3%)
    Заголовок : MVO
    Язык : Russian
    Default : Нет
    Forced : Да

    Аудио #2
    Идентификатор : 3
    Формат : AC-3
    Формат/Информация : Audio Coding 3
    Расширение режима : CM (complete main)
    Параметр Endianness формата : Big
    Идентификатор кодека : A_AC3
    Продолжительность : 1 ч. 52 м.
    Вид битрейта : Постоянный
    Битрейт : 192 Кбит/сек
    Каналы : 2 канала
    Расположение каналов : Front: L R
    Частота : 48,0 КГц
    Битовая глубина : 16 бит
    Метод сжатия : С потерями
    Размер потока : 154 Мбайт (3%)
    Заголовок : Gavrilov
    Язык : Russian
    Default : Нет
    Forced : Нет

    Аудио #3
    Идентификатор : 4
    Формат : DTS
    Формат/Информация : Digital Theater Systems
    Режим : 16
    Параметр Endianness формата : Big
    Идентификатор кодека : A_DTS
    Продолжительность : 1 ч. 52 м.
    Вид битрейта : Постоянный
    Битрейт : 1509 Кбит/сек
    Каналы : 6 каналов
    Расположение каналов : Front: L C R, Side: L R, LFE
    Частота : 48,0 КГц
    Битовая глубина : 24 бит
    Метод сжатия : С потерями
    Задержка видео : 11 мс.
    Размер потока : 1,18 Гбайт (21%)
    Заголовок : Eng
    Язык : English
    Default : Нет
    Forced : Нет

    Текст
    Идентификатор : 5
    Формат : UTF-8
    Идентификатор кодека : S_TEXT/UTF8
    Идентификатор кодека/Информация : UTF-8 Plain Text
    Заголовок : Eng
    Язык : English
    Default : Нет
    Forced : Нет

    Меню
    00:00:00.000 : en:00:00:00.000
    00:06:55.957 : en:00:06:55.957
    00:14:06.846 : en:00:14:06.846
    00:20:13.838 : en:00:20:13.838
    00:28:59.071 : en:00:28:59.071
    00:37:52.395 : en:00:37:52.395
    00:41:19.769 : en:00:41:19.769
    00:49:49.153 : en:00:49:49.153
    00:55:08.347 : en:00:55:08.347
    01:01:43.491 : en:01:01:43.491
    01:11:42.632 : en:01:11:42.632
    01:17:50.499 : en:01:17:50.499
    01:25:58.320 : en:01:25:58.320
    01:32:34.090 : en:01:32:34.090
    01:36:02.966 : en:01:36:02.966
    01:42:23.804 : en:01:42:23.804

    Скриншоты:


    pb.wtf



  • Скачать Ребята с улицы через торрент http://i56.fastpic.ru/big/2014/0504/3f/24a5c2d5af57a64d842a1e8652f79a3f.jpg Скачать фильм Ребята с улицы через торрент бесплантно в хорошем качестве Описание: Если вы хотите жить, вам не стоит соваться в лос-анджелесский квартал Южный Централ. Это очень опасное место, где обитают сплошь ... 9.3 10 8
    Info! Серебряная раздача, засчитывается только 50% скачанного.
    Торрент: Зарегистрирован [2014-05-03 20:58] · скачан: 30 раз
    Статус: √ проверено
    Размер: 5.76 GB
    Как cкачать? Как скачать Ребята с улицы через торрент | qTorrent

    28-11-2019 20:33  

    Отключить всю рекламу на сайте

    17-01-2016 15:23 Ребята с улицы Скачать торрент  

    дайте скорости плииииз)pb.wtf



      Дорогой пользователь! Огромная просьба, поблагодарите релизера, оцените раздачу и оставьте свои комментарий, если Вы скачали Ребята с улицы через торрент бесплатно! Внесите свою лепту в развитие PiratBit!
      Комментировать посты могут только пользователи прошедшие не сложную регистрацию
      Показать сообщения:    

      Ребята с улицы через торрент
      Скачать бесплатно Ребята с улицы
      Ребята с улицы скачать торрент
      Ребята с улицы смотреть онлайн
      Cкачать фильм Ребята с улицы бесплатно
      Ребята с улицы скачать торрент в хорошем качестве
      Ребята с улицы смотреть онлайн бесплатно в хорошем качестве


      Вы не можете начинать темы
      Вы не можете отвечать на сообщения
      Вы не можете редактировать свои сообщения
      Вы не можете удалять свои сообщения
      Вы не можете голосовать в опросах
      Вы не можете прикреплять файлы к сообщениям
      Вы можете скачивать файлы