1 сезон

1 сезон

iTunes

1

КиноПоиск HD

Кинопоиск HD

iTunes

13

1 сезон

RePack

30

Новинка

ВАЖНО

ИГРА 18+

pack

RePack

MK11
pack

Легкие деньги

RePack

jed

RePack

fifa19

RePack

RDR2

RePack

NEED FOR SPEED™ PAYBACK

4 сезон

9 сезон

Бесстыжие 9 сезон

Все сериалы

все сериалы на PB.wtf

RePack

FAR CRY 5
  
Magnet ссылка

Суета и движение / Hustle & Flow (Крэйг Брюэр) [2005 г., драма, мелодрама, криминал, музыка, HDRip] [DVO] [НТВ+] pb.wtf

Суета и движение через торрент pb.wtf

Размер: 1.45 GB | Добавлен: 6 лет 11 мес. назад | Торрент скачан:98 раз
Скачать  

04-05-2014 05:28 Суета и движение Скачать торрент  

Суета и движение / Hustle & Flow
Год выпуска: 2005
Страна: США
Жанр: драма, мелодрама, криминал, музыка
Продолжительность: 01:56:19
Перевод: Профессиональный двухголосый НТВ+
Субтитры: нет

Режиссер: Крэйг Брюэр

Бюджет: $2 800 000
Премьера в мире: 14 апреля 2005, ...




В ролях: Терренс Ховард, Энтони Андерсон, Тэрин Мэннинг, Тараджи П. Хенсон, DJ Куаллс, Лудакрис, Паула Джей Паркер, Элиз Нил, Айзек Хейз, Джордан Хьюстон

Описание: Рэппер ДиДжэй, а по совместительству сутенер, пытается организовать запись своего первого альбома, в чем ему помогают различные мемфисские знакомые. Возможно, это его первый и последний шанс добиться хоть чего-то в мире хип-хопа, поэтому, когда он узнает, что суперзвезда рэпа Скинни Блэк приезжает в его район, ДиДжэй, чтобы привлечь внимание Скинни, решает толкнуть ему свой лучший «товар»…

Качество: HDRip
Формат: AVI
Видео кодек: XviD
Аудио кодек: AC3
Видео: 720x400 (1.80:1), 23.976 fps, XviD build 73 ~1422 kbps avg, 0.21 bit/pixel
Аудио#1: 48 kHz, AC3 Dolby Digital, 2/0 (L,R) ch, ~192.00 kbps avg [НТВ+]
Аудио#2: 48 kHz, AC3 Dolby Digital, 2/0 (L,R) ch, ~160.00 kbps avg [ENG]
Релиз от: Deadmauvlad
скриншот   скриншот   скриншот   скриншот   скриншот   скриншот   скриншот   скриншот  

Общее
Полное имя : D:\Рипы выкладка [Deadmauvlad]\Рипы готовые\Hustle.&.Flow.2005.HDRip.Rus.Eng.Deadmauvlad.avi
Формат : AVI
Формат/Информация : Audio Video Interleave
Размер файла : 1,45 Гбайт
Продолжительность : 1 ч. 56 м.
Общий поток : 1790 Кбит/сек
Название фильма : Hustle.&.Flow.2005.HDRip.Rus.Eng.Deadmauvlad
Режиссёр : Deadmauvlad
Жанр : Криминал,драма
Программа кодирования : VirtualDubMod 1.5.10.3 | www.virtualdub-fr.org || (build 2550/release)
Формат оригинала/Имя : Фильм
Правообладатель : Goldenshara

Видео
Идентификатор : 0
Формат : MPEG-4 Visual
Профиль формата : Advanced Simple@L5
Параметр BVOP формата : 1
Параметр QPel формата : Да
Параметр GMC формата : Без точки перехода
Параметр матрицы формата : Выборочная
Идентификатор кодека : XVID
Идентификатор кодека/Подсказка : XviD
Продолжительность : 1 ч. 56 м.
Битрейт : 1424 Кбит/сек
Ширина : 720 пикселей
Высота : 400 пикселей
Соотношение сторон : 16:9
Частота кадров : 23,976 кадра/сек
Цветовое пространство : YUV
Субдискретизация насыщенности : 4:2:0
Битовая глубина : 8 бит
Тип развёртки : Прогрессивная
Метод сжатия : С потерями
Бит/(Пиксели*Кадры) : 0.206
Размер потока : 1,16 Гбайт (80%)
Библиотека кодирования : XviD 73

Аудио #1
Идентификатор : 1
Формат : AC-3
Формат/Информация : Audio Coding 3
Расширение режима : CM (complete main)
Параметр Endianness формата : Big
Идентификатор кодека : 2000
Продолжительность : 1 ч. 56 м.
Вид битрейта : Постоянный
Битрейт : 192 Кбит/сек
Каналы : 2 канала
Расположение каналов : Front: L R
Частота : 48,0 КГц
Битовая глубина : 16 бит
Метод сжатия : С потерями
Размер потока : 160 Мбайт (11%)
Выравнивание : Разделение по промежуткам
Продолжительность промежутка : 42 мс. (1,00 видеокадр)
Время предзагрузки промежутка : 500 мс.

Аудио #2
Идентификатор : 2
Формат : AC-3
Формат/Информация : Audio Coding 3
Расширение режима : CM (complete main)
Параметр Endianness формата : Big
Идентификатор кодека : 2000
Продолжительность : 1 ч. 56 м.
Вид битрейта : Постоянный
Битрейт : 160 Кбит/сек
Каналы : 2 канала
Расположение каналов : Front: L R
Частота : 48,0 КГц
Битовая глубина : 16 бит
Метод сжатия : С потерями
Размер потока : 133 Мбайт (9%)
Выравнивание : Разделение по промежуткам
Продолжительность промежутка : 42 мс. (1,00 видеокадр)
Время предзагрузки промежутка : 500 мс.

pb.wtf



Скачать Суета и движение через торрент https://pic.kartinco.top/images/6/rjkdz.jpg Скачать фильм Суета и движение через торрент бесплантно в хорошем качестве Описание: Рэппер ДиДжэй, а по совместительству сутенер, пытается организовать запись своего первого альбома, в чем ему помогают различные ... 8.3 10 3
Торрент: Зарегистрирован [2014-05-04 05:28] · скачан: 98 раз
Статус: √ проверено
Размер: 1.45 GB
Как cкачать? Как скачать Суета и движение через торрент | UTorrent

28-11-2019 20:33  

Отключить всю рекламу на сайте

    Дорогой пользователь! Огромная просьба, поблагодарите релизера, оцените раздачу и оставьте свои комментарий, если Вы скачали Суета и движение через торрент бесплатно! Внесите свою лепту в развитие PiratBit!
    Комментировать посты могут только пользователи прошедшие не сложную регистрацию
    Показать сообщения:    

    Суета и движение через торрент
    Скачать бесплатно Суета и движение
    Суета и движение скачать торрент
    Суета и движение смотреть онлайн
    Cкачать фильм Суета и движение бесплатно
    Суета и движение скачать торрент в хорошем качестве
    Суета и движение смотреть онлайн бесплатно в хорошем качестве


    Вы не можете начинать темы
    Вы не можете отвечать на сообщения
    Вы не можете редактировать свои сообщения
    Вы не можете удалять свои сообщения
    Вы не можете голосовать в опросах
    Вы не можете прикреплять файлы к сообщениям
    Вы можете скачивать файлы