2 сезон

iTunes

MVO

1

2 сезон

iTunes

iTunes

1 сезон

RePack

30

Новинка

ВАЖНО

ИГРА 18+

pack

RePack

MK11
pack

Легкие деньги

RePack

jed

RePack

fifa19

RePack

RDR2

RePack

NEED FOR SPEED™ PAYBACK

4 сезон

9 сезон

Бесстыжие 9 сезон

Все сериалы

все сериалы на PB.wtf

RePack

FAR CRY 5

Anonymous, добрый вечер, мы не успеваем собрать деньги на оплату серверов за декабрь и январь, помогите нам пожалуйста в это трудное время. В качестве благодарности мы отключим Вам всю рекламу на сайте (укажите свой ник в строку Ваше имя)!

×
  
Magnet ссылка

Университетский вампир / Vamp U (Мэтт Есперсен / Matt Jespersen, Маклейн Нельсон / Maclain Nelson) [2013 г., ужасы, боевик, комедия, HDRip] [DVO] [ НТВ+] pb.wtf

Университетский вампир через торрент pb.wtf

Размер: 748 MB | Добавлен: 6 лет 8 мес. назад | Торрент скачан:419 раз
Скачать  

04-05-2014 05:40 Университетский вампир Скачать торрент  

Университетский вампир / Vamp U
Год выпуска: 2013
Страна: США
Жанр: ужасы, боевик, комедия
Продолжительность: 01:35:57
Перевод: Профессиональный двухголосый НТВ+

Режиссер: Мэтт Есперсен / Matt Jespersen, Маклейн Нельсон / Maclain Nelson
Продюссер: Брайнтон Брайан, Т.Р. Гурли, Брэд Джонсон, ...
Сценарий: Мэтт Есперсен, Маклейн Нельсон

Премьера в мире: 5 марта 2013

возраст (зрителям, достигшим 16 лет)



В ролях: Джули Гонсало (Chris Keller /Mary Lipinsky), Адам Джонсон (Wayne Gretzky), Алексис Нэп (Samantha), Гэри Коул (Arthur Levine), Маклейн Нельсон (Fred Green), Мэтт Маттсон (Tom Slansky), Барт Джонсон (Ted Keller), Клэр Нидерпрюэм (Janet), Фрэнки Леванджи (Kyle), Джейк Ван Вагонер (Jared), Ренни Грэймс (Mel), Джейсон Целая (Gregor)

Описание: 300 лет назад вампир Уэйн Грецки утратил способность «вампирствовать» после потери любви всей жизни. В наши дни он коллежский профессор, однако вампирическое проклятие продолжает преследовать его.

Качество: HDRip
Формат: AVI
Видео кодек: XviD
Аудио кодек: AC3
Видео: 720x400 (1.80:1), 23.976 fps, XviD build 73 ~952 kbps avg, 0.14 bit/pixel
Аудио#1: 48 kHz, AC3 Dolby Digital, 2/0 (L,R) ch, ~128 kbps
Релиз от: Deadmauvlad
скриншот   скриншот   скриншот   скриншот  

Общее
Полное имя : C:UsersDeadmauvladDesktopРелизы На выкладкуVamp.U.2013.P.HDRip.Deadmauvlad.Goldenshara.avi
Формат : AVI
Формат/Информация : Audio Video Interleave
Размер файла : 748 Мбайт
Продолжительность : 1 ч. 35 м.
Общий поток : 1090 Кбит/сек
Название фильма : Vamp.U.2013.P.HDRip.Deadmauvlad.Goldenshara
Режиссёр : Deadmauvlad R.G Goldenshara
Жанр : Ужасы
Программа кодирования : VirtualDubMod 1.5.10.3 | www.virtualdub-fr.org || (build 2550/release)
Формат оригинала/Имя : Фильм

Видео
Идентификатор : 0
Формат : MPEG-4 Visual
Профиль формата : Advanced Simple@L5
Параметр BVOP формата : 1
Параметр QPel формата : Нет
Параметр GMC формата : Без точки перехода
Параметр матрицы формата : Default (MPEG)
Идентификатор кодека : XVID
Идентификатор кодека/Подсказка : XviD
Продолжительность : 1 ч. 35 м.
Битрейт : 952 Кбит/сек
Ширина : 720 пикселей
Высота : 400 пикселей
Соотношение сторон : 16:9
Частота кадров : 23,976 кадра/сек
Цветовое пространство : YUV
Субдискретизация насыщенности : 4:2:0
Битовая глубина : 8 бит
Тип развёртки : Прогрессивная
Метод сжатия : С потерями
Бит/(Пиксели*Кадры) : 0.138
Размер потока : 654 Мбайт (87%)
Библиотека кодирования : XviD 73

Аудио
Идентификатор : 1
Формат : AC-3
Формат/Информация : Audio Coding 3
Расширение режима : CM (complete main)
Параметр Endianness формата : Big
Идентификатор кодека : 2000
Продолжительность : 1 ч. 35 м.
Вид битрейта : Постоянный
Битрейт : 128 Кбит/сек
Каналы : 2 канала
Расположение каналов : Front: L R
Частота : 48,0 КГц
Битовая глубина : 16 бит
Метод сжатия : С потерями
Размер потока : 87,8 Мбайт (12%)
Выравнивание : Соединение по промежуткам
Продолжительность промежутка : 42 мс. (1,00 видеокадр)
Время предзагрузки промежутка : 512 мс.

pb.wtf



Скачать Университетский вампир через торрент http://pic.kartinco.top/images/6/7y318.jpg Скачать фильм Университетский вампир через торрент бесплантно в хорошем качестве Описание: 300 лет назад вампир Уэйн Грецки утратил способность «вампирствовать» после потери любви всей жизни. В наши дни он коллежский ... 9.3 10 9
Торрент: Зарегистрирован [2014-05-04 05:40] · скачан: 419 раз
Статус: √ проверено
Размер: 748 MB
Как cкачать? Как скачать Университетский вампир через торрент | UTorrent

% Раздел Тема Автор DL S | L
Фильмы 2013 [DVDrip, WEB-DLRip, HDrip] [ 1.37 GB ] Университетский вампир / Vamp U [ 2013 WEB-DLRip ] MVO [НТВ Ворон Скачать
1 | 0

28-11-2019 20:33  

Отключить всю рекламу на сайте

04-05-2014 06:14 Университетский вампир Скачать торрент  

Опять какой нибудь американский недопорнушный пирог или что?pb.wtf



04-05-2014 07:10 Университетский вампир Скачать торрент  

deadmauVlad,

чиркани мне в скайп. По поводу Л.С.pb.wtf



04-05-2014 09:02 Университетский вампир Скачать торрент  

Ребята, кто смотрел - как фильм?pb.wtf



    Дорогой пользователь! Огромная просьба, поблагодарите релизера, оцените раздачу и оставьте свои комментарий, если Вы скачали Университетский вампир через торрент бесплатно! Внесите свою лепту в развитие PiratBit!
    Комментировать посты могут только пользователи прошедшие не сложную регистрацию
    Показать сообщения:    

    Университетский вампир через торрент
    Скачать бесплатно Университетский вампир
    Университетский вампир скачать торрент
    Университетский вампир смотреть онлайн
    Cкачать фильм Университетский вампир бесплатно
    Университетский вампир скачать торрент в хорошем качестве
    Университетский вампир смотреть онлайн бесплатно в хорошем качестве


    Вы не можете начинать темы
    Вы не можете отвечать на сообщения
    Вы не можете редактировать свои сообщения
    Вы не можете удалять свои сообщения
    Вы не можете голосовать в опросах
    Вы не можете прикреплять файлы к сообщениям
    Вы можете скачивать файлы