новый адрес пиратбит piratbit
Мега распродажа FORZA HORIZON 4 ULTIMATE+ВСЕ DLC+ОНЛАЙН всего за 499р. 349 руб. (супер цена). Внимание количество ограничено!!!

iTunes

1+1

iTunes

мы

iTunes

1

iTunes

Чернобыль

iTunes

Ральф против интернета

Лицензия

ПШазам

Лицензия

Игра престолов

Лицензия

30
pack

ВАЖНО

!!Акция!!

Alien_RageХит недели

RePack

Resident Evil 21

ИГРА 18+

pack

RePack

Metro:Exodus

!!Акция!!

Alien_Rage

RePack

fifa19

RePack

Assassins Creed: Odyssey

RePack

NEED FOR SPEED™ PAYBACK

3 сезон

9 сезон

Бесстыжие 9 сезон

Все сериалы

все сериалы на PB.wtf

RePack

FAR CRY 5
Ребята, катастрофически не хватает 1900р. для оплаты серверов за Октябрь (всвязи с блокировками трафик упал в 3 раза), 1-2р., выручайте.
  

Зимний вечер в Гаграх (Карен Шахназаров) [1985 г., Мюзикл, драма, мелодрама, комедия, DVDRip] pb.wtf

Зимний вечер в Гаграх через торрент pb.wtf

Размер: 1.12 GB | Добавлен: 5 лет 6 мес. назад | Торрент скачан:74 раза
Скачать  

04-05-2014 06:44 Зимний вечер в Гаграх Скачать торрент  

Информация о фильме:
Название: Зимний вечер в Гаграх

Год выпуска: 1985
Страна: СССР
Жанр: Мюзикл, драма, мелодрама, комедия

Режиссёр: Карен Шахназаров
В ролях: Евгений Евстигнеев, Александр Панкратов-Черный, Наталья Гундарева, Сергей Никоненко, Петр Щербаков, Аркадий Насыров, Светлана Аманова, Анна Иванова, Георгий Бурков, Александр Ширвиндт

Продолжительность: 01:25:01
Перевод: Не требуется
Субтитры: Нет

Описание:
Стремительный ритм, виртуозная и озорная импровизация — вот что такое чечетка.. Главный герой фильма, некогда знаменитый чечеточник, кумир публики, живет ныне скромно и незаметно. Он репетитор танцев в эстрадном коллективе, где блещут иные «звезды»…
И вдруг все меняется: к старому артисту словно возвращается молодость. Так подействовала на него встреча с несколько странным молодым человеком, который пришел со сломанной ногой и попросил, чтобы его ни много ни мало научили «бить степ»…


Доп. информация: Полная реставрация изображения и звука от "Крупный План"


Релиз от: R.G.RealMT

Файл:
Качество: DVDRip
Формат: AVI
Видео кодек: XVID
Аудио кодек: MP3
Видео: 1750 kbps, 720x406, 25 fps
Аудио: 128 kbps, 2 ch, 44,1 khz

Скиншоты:
General
Complete name : D:\Фильмы\720\Musical\Zimniy vecher v Gagrakh.avi
Format : AVI
Format/Info : Audio Video Interleave
File size : 1.12 GiB
Duration : 1h 25mn
Overall bit rate : 1 890 Kbps

Video
ID : 0
Format : MPEG-4 Visual
Format profile : Advanced Simple@L4
Format settings, BVOP : No
Format settings, QPel : No
Format settings, GMC : No warppoints
Format settings, Matrix : Default (H.263)
Codec ID : XVID
Codec ID/Hint : XviD
Duration : 1h 25mn
Bit rate : 1 750 Kbps
Width : 720 pixels
Height : 406 pixels
Display aspect ratio : 16:9
Frame rate : 25.000 fps
Color space : YUV
Chroma subsampling : 4:2:0
Bit depth : 8 bits
Scan type : Progressive
Compression mode : Lossy
Bits/(Pixel*Frame) : 0.239
Stream size : 1.04 GiB (93%)

Audio
ID : 1
Format : MPEG Audio
Format version : Version 1
Format profile : Layer 3
Codec ID : 55
Codec ID/Hint : MP3
Duration : 1h 25mn
Bit rate mode : Constant
Bit rate : 128 Kbps
Channel count : 2 channels
Sampling rate : 44.1 KHz
Compression mode : Lossy
Stream size : 77.8 MiB (7%)
Alignment : Split accross interleaves
Interleave, duration : 26 ms (0.65 video frame)
Writing library : LAME3.98.2
pb.wtf



Скачать Зимний вечер в Гаграх через торрент http://i56.fastpic.ru/big/2014/0504/75/651e99deda1c4013ee207df7b296f175.gif Скачать фильм Зимний вечер в Гаграх через торрент бесплантно в хорошем качестве Описание: Стремительный ритм, виртуозная и озорная импровизация — вот что такое чечетка.. Главный герой фильма, некогда знаменитый ... 10 10 3
Торрент: Зарегистрирован [2014-05-04 06:44] · скачан: 74 раз
Статус: √ проверено
Размер: 1.12 GB
Как cкачать? Как скачать Зимний вечер в Гаграх через торрент | qTorrent


>> Регистрируемся здесь <<






Отзывы и комментарии о схеме читаем и пишем здесь: ---> Отзывы и комментарии о схеме

Новые благодарочки в телеграм довольных пользователей:
скриншот   скриншот   скриншот   скриншот   скриншот

04-05-2014 07:05 Зимний вечер в Гаграх Скачать торрент  

лисяра Пардон, подправил, ми добавилpb.wtf



    Дорогой пользователь! Огромная просьба, поблагодарите релизера, оцените раздачу и оставьте свои комментарий, если Вы скачали Зимний вечер в Гаграх через торрент бесплатно! Внесите свою лепту в развитие PiratBit!
    Комментировать посты могут только пользователи прошедшие не сложную регистрацию
    Показать сообщения:    

    Зимний вечер в Гаграх через торрент
    Скачать бесплатно Зимний вечер в Гаграх
    Зимний вечер в Гаграх скачать торрент
    Зимний вечер в Гаграх смотреть онлайн
    Cкачать фильм Зимний вечер в Гаграх бесплатно
    Зимний вечер в Гаграх скачать торрент в хорошем качестве
    Зимний вечер в Гаграх смотреть онлайн бесплатно в хорошем качестве


    Вы не можете начинать темы
    Вы не можете отвечать на сообщения
    Вы не можете редактировать свои сообщения
    Вы не можете удалять свои сообщения
    Вы не можете голосовать в опросах
    Вы не можете прикреплять файлы к сообщениям
    Вы можете скачивать файлы