Ссылка на приватное зеркало всего за 1$. Внимание количество ограничено!!!

iTunes

1+1

iTunes

мы

WEB-DL

1

iTunes

Чернобыль

iTunes

Ральф против интернета

Лицензия

ПШазам

Лицензия

Оно 2

Лицензия

30
pack

Вам бонус

ВАЖНО

!!Акция!!

Alien_RageХит недели

RePack

Resident Evil 21

ИГРА 18+

pack

RePack

jed

!!Акция!!

Alien_Rage

RePack

fifa19

RePack

Assassins Creed: Odyssey

RePack

NEED FOR SPEED™ PAYBACK

3 сезон

9 сезон

Бесстыжие 9 сезон

Все сериалы

все сериалы на PB.wtf

RePack

FAR CRY 5
Ребята, катастрофически не хватает 1900р. для оплаты серверов за Октябрь (всвязи с блокировками трафик упал в 3 раза), 1-2р., выручайте.
  

"Мерседес" уходит от погони (Юрий Ляшенко) [1980 г., Военный, Приключения, DVDRip] pb.wtf

"Мерседес" уходит от погони через торрент pb.wtf

Размер: 1.37 GB | Добавлен: 5 лет 7 мес. назад | Торрент скачан:39 раз
Скачать  

04-05-2014 17:40 "Мерседес" уходит от погони Скачать торрент  


"Мерседес" уходит от погониГод выпуска: 1980
Страна: СССР Киностудия им.Довженко
Жанр: Военный, Приключения
Продолжительность: 01:13:51
Режиссер: Юрий Ляшенко
Сценарий: Андрей Локотош, Игорь Шевцов

Премьера в мире: март 1981

В ролях: Герман Юшко, Михаил Голубович, Анатолий Рудаков, Игорь Ливанов, Анатолий Барчук, Борис Юрченко, Вилорий Пащенко
Описание: Советским разведчикам дано задание отправиться в тыл врага на рискованную боевую операцию, от успешного выполнения которой зависит судьба фронта. Переодевшись в немецкую форму, они садятся на трофейный "Мерседес" и пересекают линию фронта.
Их путь идёт по дорогам, патрулируемым фашистами, где каждый неверный шаг может привести к роковым последствиям.

Качество: DVDRip
Формат: AVI
Видео кодек: DivX
Аудио кодек: AC3
Видео: DivX 5, 704x352, 25.00fps, 2 256 Kbps
Аудио: Dolby AC3, 48000Hz, 6ch, 384kbps
Релиз от: Devprojman






General
Complete name : I:\01 01 01\'Mersedes' uhodit ot pogoni.avi
Format : AVI
Format/Info : Audio Video Interleave
File size : 1.37 GiB
Duration : 1h 13mn
Overall bit rate : 2 650 Kbps
Writing application : VirtualDubMod 1.5.10.2 (build 2540/release)
Writing library : VirtualDubMod build 2540/release

Video
ID : 0
Format : MPEG-4 Visual
Format settings, BVOP : 1
Format settings, QPel : No
Format settings, GMC : No warppoints
Format settings, Matrix : Default (H.263)
Muxing mode : Packed bitstream
Codec ID : DX50
Codec ID/Hint : DivX 5
Duration : 1h 13mn
Bit rate : 2 256 Kbps
Width : 704 pixels
Height : 352 pixels
Display aspect ratio : 2.000
Frame rate : 25.000 fps
Color space : YUV
Chroma subsampling : 4:2:0
Bit depth : 8 bits
Scan type : Progressive
Compression mode : Lossy
Bits/(Pixel*Frame) : 0.364
Stream size : 1.16 GiB (85%)
Writing library : DivX 6.8.5 (UTC 2009-08-20)

Audio
ID : 1
Format : AC-3
Format/Info : Audio Coding 3
Mode extension : CM (complete main)
Codec ID : 2000
Duration : 1h 13mn
Bit rate mode : Constant
Bit rate : 384 Kbps
Channel(s) : 6 channels
Channel positions : Front: L C R, Side: L R, LFE
Sampling rate : 48.0 KHz
Bit depth : 16 bits
Compression mode : Lossy
Stream size : 203 MiB (14%)
Alignment : Split accross interleaves
Interleave, duration : 40 ms (1.00 video frame)
Interleave, preload duration : 500 ms

pb.wtf



Скачать "Мерседес" уходит от погони через торрент http://pic.kartinco.top/images/6/iucae.jpg Скачать фильм "Мерседес" уходит от погони через торрент бесплантно в хорошем качестве Описание: Советским разведчикам дано задание отправиться в тыл врага на рискованную боевую операцию, от успешного выполнения которой ... 10 10 7
Торрент: Зарегистрирован [2014-05-04 17:40] · скачан: 39 раз
Статус: √ проверено
Размер: 1.37 GB
Как cкачать? Как скачать "Мерседес" уходит от погони через торрент | qTorrent

28-11-2019 20:33  

Отключить всю рекламу на сайте

    Дорогой пользователь! Огромная просьба, поблагодарите релизера, оцените раздачу и оставьте свои комментарий, если Вы скачали "Мерседес" уходит от погони через торрент бесплатно! Внесите свою лепту в развитие PiratBit!
    Комментировать посты могут только пользователи прошедшие не сложную регистрацию
    Показать сообщения:    

    "Мерседес" уходит от погони через торрент
    Скачать бесплатно "Мерседес" уходит от погони
    "Мерседес" уходит от погони скачать торрент
    "Мерседес" уходит от погони смотреть онлайн
    Cкачать фильм "Мерседес" уходит от погони бесплатно
    "Мерседес" уходит от погони скачать торрент в хорошем качестве
    "Мерседес" уходит от погони смотреть онлайн бесплатно в хорошем качестве


    Вы не можете начинать темы
    Вы не можете отвечать на сообщения
    Вы не можете редактировать свои сообщения
    Вы не можете удалять свои сообщения
    Вы не можете голосовать в опросах
    Вы не можете прикреплять файлы к сообщениям
    Вы можете скачивать файлы