Ссылка на приватное зеркало нашего сайта всего за 1$. Внимание количество ограничено!!!

2 сезон

iTunes

1 сезон

1

iTunes

iTunes

iTunes

1 сезон

RePack

30

ИГРА 18+

pack

ВАЖНО

!!Акция!!

Alien_RageХит недели

RePack

MK11
pack

Забери бонус

RePack

jed

!!Акция!!

Alien_Rage

RePack

fifa19

RePack

Assassins Creed: Odyssey

RePack

NEED FOR SPEED™ PAYBACK

4 сезон

9 сезон

Бесстыжие 9 сезон

Все сериалы

все сериалы на PB.wtf

RePack

FAR CRY 5
  

Гнев / Tokarev (Пако Кабесас / Paco Cabezas) [2014, США, Франция, боевик, триллер, криминал, BDRip 1080p] MVO от R.G. HD-Films pb.wtf

Гнев через торрент pb.wtf

Размер: 7.12 GB | Добавлен: 6 лет 5 мес. назад | Торрент скачан:870 раз
Скачать  

04-05-2014 18:12 Гнев Скачать торрент  


Гнев / Tokarev


Год выпуска: 2014
Страна:США, Франция
Жанр:боевик, триллер, криминал
Продолжительность:01:38:27
Перевод:Профессиональный (многоголосый, закадровый)+Любительский (двухголосый) [Proton&Hell]
Субтитры: Русские, Английские
Режиссер:Пако Кабесас / Paco Cabezas

  • В ролях:

    Николас Кейдж (Paul Maguire), Рэйчел Николс (Vanessa), Макс Райан (Kane), Майкл МакГрэйди (Danny Doherty), Петер Стормаре (Francis O'Connell), Павел Личникофф (Chernov), Патрис Колс (Anton, слухи), Макс Фаулер (Mike), Обри Пиплз (Caitlin Maguire), Джек Фалахи, Уэстон Кейдж (Young Paul), Дэнни Гловер (Detective St. John)

  • Описание:
    Пол Магуаер - бывший гангстер, а теперь добропорядочный бизнесмен и примерный семьянин. Но когда его дочь похищают, он вынужден поднять свои старые связи и снова вернуться на скользкую дорожку...

  • Мировая премьера:31 января 2014


      Качество: BDRip 1080p
      Формат: MKV
      Видео кодек: AVC
      Аудио кодек: DTS /AC3
      Видео: AVC, 1920x816 (2.35:1), 8016 kbps, 23,976 fps, 0,213 bpp
      Аудио №2: русский / AC-3, 48.0 KHz, 6 ch, 448 Kbps, CBR ||MVO
      Аудио №2: русский / AC3 / 2.0 / 48 kHz / 192 kbps / 16 bit || DVO [Proton&Hell]
      Аудио №3: русский / AC3 / 2.0 / 44 kHz / 192 kbps / 16 bit || VO (ХиХиДок)
      Аудио №4: английский / DTS / 5.1 / 48 kHz / 1510 kbps / 24 bit


    Код:

    Общее
    Уникальный идентификатор                 : 247256556901925859173219572266160346565 (0xBA03E174CAAF932E97F5AA587577D5C5)
    Полное имя                               : D:\Торенты\Tокарев.2014.BDRip.1080p .piratbit.cc  .mkv
    Формат                                   : Matroska
    Версия формата                           : Version 4 / Version 2
    Размер файла                             : 7,12 Гбайт
    Продолжительность                        : 1 ч. 38 м.
    Общий поток                              : 10,4 Мбит/сек
    Название фильма                          : Release for Piratbit.net_R.G. HD-Films
    Дата кодирования                         : UTC 2014-05-04 19:58:00
    Программа кодирования                    : mkvmerge v6.9.1 ('Blue Panther') 64bit built on Apr 18 2014 18:23:38
    Библиотека кодирования                   : libebml v1.3.0 + libmatroska v1.4.1
    Attachment                               : Yes

    Видео
    Идентификатор                            : 1
    Формат                                   : AVC
    Формат/Информация                        : Advanced Video Codec
    Профиль формата                          : High@L4.1
    Параметр CABAC формата                   : Да
    Параметр ReFrames формата                : 5 кадров
    Идентификатор кодека                     : V_MPEG4/ISO/AVC
    Продолжительность                        : 1 ч. 38 м.
    Битрейт                                  : 8016 Кбит/сек
    Ширина                                   : 1920 пикселей
    Высота                                   : 816 пикселей
    Соотношение сторон                       : 2,35:1
    Режим частоты кадров                     : Постоянный
    Частота кадров                           : 23,976 кадра/сек
    Цветовое пространство                    : YUV
    Субдискретизация насыщенности            : 4:2:0
    Битовая глубина                          : 8 бит
    Тип развёртки                            : Прогрессивная
    Бит/(Пиксели*Кадры)                      : 0.213
    Размер потока                            : 5,37 Гбайт (75%)
    Заголовок                                : Release for Piratbit.net_R.G. HD-Films
    Библиотека кодирования                   : x264 core 142 r2431 ac76440
    Настройки программы                      : cabac=1 / ref=5 / deblock=1:-1:-1 / analyse=0x3:0x133 / me=umh / subme=8 / psy=1 / psy_rd=1.00:0.15 / mixed_ref=1 / me_range=16 / chroma_me=1 / trellis=1 / 8x8dct=1 / cqm=0 / deadzone=21,11 / fast_pskip=0 / chroma_qp_offset=-4 / threads=18 / lookahead_threads=3 / sliced_threads=0 / nr=0 / decimate=1 / interlaced=0 / bluray_compat=0 / constrained_intra=0 / bframes=3 / b_pyramid=2 / b_adapt=2 / b_bias=0 / direct=3 / weightb=1 / open_gop=0 / weightp=2 / keyint=240 / keyint_min=23 / scenecut=40 / intra_refresh=0 / rc_lookahead=50 / rc=2pass / mbtree=1 / bitrate=8016 / ratetol=1.0 / qcomp=0.60 / qpmin=10 / qpmax=69 / qpstep=4 / cplxblur=20.0 / qblur=0.5 / ip_ratio=1.40 / aq=1:1.00
    Язык                                     : English
    Default                                  : Да
    Forced                                   : Нет

    Аудио #1
    Идентификатор                            : 2
    Формат                                   : AC-3
    Формат/Информация                        : Audio Coding 3
    Расширение режима                        : CM (complete main)
    Параметр Endianness формата              : Big
    Идентификатор кодека                     : A_AC3
    Продолжительность                        : 1 ч. 38 м.
    Вид битрейта                             : Постоянный
    Битрейт                                  : 448 Кбит/сек
    Каналы                                   : 6 каналов
    Расположение каналов                     : Front: L C R, Side: L R, LFE
    Частота                                  : 48,0 КГц
    Битовая глубина                          : 16 бит
    Метод сжатия                             : С потерями
    Размер потока                            : 316 Мбайт (4%)
    Язык                                     : Russian
    Default                                  : Да
    Forced                                   : Да

    Аудио #2
    Идентификатор                            : 3
    Формат                                   : AC-3
    Формат/Информация                        : Audio Coding 3
    Профиль формата                          : Dolby Digital
    Расширение режима                        : CM (complete main)
    Параметр Endianness формата              : Big
    Идентификатор кодека                     : A_AC3
    Продолжительность                        : 1 ч. 38 м.
    Вид битрейта                             : Постоянный
    Битрейт                                  : 192 Кбит/сек
    Каналы                                   : 2 канала
    Расположение каналов                     : Front: L R
    Частота                                  : 48,0 КГц
    Битовая глубина                          : 16 бит
    Метод сжатия                             : С потерями
    Размер потока                            : 135 Мбайт (2%)
    Заголовок                                : Любительский (двухголосый) [Proton&Hell]
    Язык                                     : Russian
    Default                                  : Нет
    Forced                                   : Нет

    Аудио #3
    Идентификатор                            : 4
    Формат                                   : AC-3
    Формат/Информация                        : Audio Coding 3
    Расширение режима                        : CM (complete main)
    Параметр Endianness формата              : Big
    Идентификатор кодека                     : A_AC3
    Продолжительность                        : 1 ч. 38 м.
    Вид битрейта                             : Постоянный
    Битрейт                                  : 192 Кбит/сек
    Каналы                                   : 2 канала
    Расположение каналов                     : Front: L R
    Частота                                  : 44,1 КГц
    Битовая глубина                          : 16 бит
    Метод сжатия                             : С потерями
    Размер потока                            : 135 Мбайт (2%)
    Заголовок                                : ХиХидок
    Язык                                     : Russian
    Default                                  : Нет
    Forced                                   : Нет

    Аудио #4
    Идентификатор                            : 5
    Формат                                   : DTS
    Формат/Информация                        : Digital Theater Systems
    Режим                                    : 16
    Параметр Endianness формата              : Big
    Идентификатор кодека                     : A_DTS
    Продолжительность                        : 1 ч. 38 м.
    Вид битрейта                             : Постоянный
    Битрейт                                  : 1509 Кбит/сек
    Каналы                                   : 6 каналов
    Расположение каналов                     : Front: L C R, Side: L R, LFE
    Частота                                  : 48,0 КГц
    Битовая глубина                          : 24 бит
    Метод сжатия                             : С потерями
    Размер потока                            : 1,04 Гбайт (15%)
    Язык                                     : English
    Default                                  : Нет
    Forced                                   : Нет

    Текст #1
    Идентификатор                            : 6
    Формат                                   : UTF-8
    Идентификатор кодека                     : S_TEXT/UTF8
    Идентификатор кодека/Информация          : UTF-8 Plain Text
    Заголовок                                : Enigma
    Язык                                     : Russian
    Default                                  : Нет
    Forced                                   : Нет

    Текст #2
    Идентификатор                            : 7
    Формат                                   : UTF-8
    Идентификатор кодека                     : S_TEXT/UTF8
    Идентификатор кодека/Информация          : UTF-8 Plain Text
    Язык                                     : English
    Default                                  : Нет
    Forced                                   : Нет

    Меню
    00:00:00.000                             : en:00:00:00.000
    00:08:35.598                             : en:00:08:35.598
    00:16:44.295                             : en:00:16:44.295
    00:24:59.998                             : en:00:24:59.998
    00:37:21.448                             : en:00:37:21.448
    00:42:16.200                             : en:00:42:16.200
    00:48:20.356                             : en:00:48:20.356
    00:55:27.032                             : en:00:55:27.032
    01:07:48.731                             : en:01:07:48.731
    01:13:20.146                             : en:01:13:20.146
    01:19:58.711                             : en:01:19:58.711
    01:27:23.071                             : en:01:27:23.071

    Скриншоты:скриншот   скриншот   скриншот   скриншот  
    Каталог Новинок (Фильмы-трейлеры, Игры, Сериалы, Мультфильмы)

    Релиз подготовлен специально для Piratbit.net. Синхронизация звука и видео by Raven
    pb.wtf



  • Скачать Гнев через торрент http://pic.kartinco.top/images/6/stazu.jpg Скачать фильм Гнев через торрент бесплантно в хорошем качестве Описание:Пол Магуаер - бывший гангстер, а теперь добропорядочный бизнесмен и примерный семьянин. Но когда его дочь похищают, он вынужден ... 10 10 29
    Info! Золотая раздача, скачанное не засчитывается.
    Торрент: Зарегистрирован [2014-05-04 20:08] · скачан: 870 раз
    Статус: √ проверено
    Размер: 7.12 GB
    Как cкачать? Как скачать Гнев через торрент | qTorrent



    Последний раз редактировалось: Ворон (2015-03-19 16:03), всего редактировалось 11 раз(а)

    28-11-2019 20:33  

    Отключить всю рекламу на сайте

    04-05-2014 19:51 Гнев Скачать торрент  

    сэмпл сделай и когда будет норм перевод Дубл?pb.wtf



    05-05-2014 15:42 Гнев Скачать торрент  

    нормальный фильм, не зря потраченное время, единственное не понравилась игра актрисы играющая его жену, как то неправдоподобно, ну может показалось pb.wtf



    09-05-2014 09:12 Гнев Скачать торрент  

    начало впеччатлило но потом такая чуушь!!!! зачем мелодрамы снимать конец вобше поразил своей тупостьюpb.wtf



      Дорогой пользователь! Огромная просьба, поблагодарите релизера, оцените раздачу и оставьте свои комментарий, если Вы скачали Гнев через торрент бесплатно! Внесите свою лепту в развитие PiratBit!
      Комментировать посты могут только пользователи прошедшие не сложную регистрацию
      Показать сообщения:    

      Гнев через торрент
      Скачать бесплатно Гнев
      Гнев скачать торрент
      Гнев смотреть онлайн
      Cкачать фильм Гнев бесплатно
      Гнев скачать торрент в хорошем качестве
      Гнев смотреть онлайн бесплатно в хорошем качестве


      Вы не можете начинать темы
      Вы не можете отвечать на сообщения
      Вы не можете редактировать свои сообщения
      Вы не можете удалять свои сообщения
      Вы не можете голосовать в опросах
      Вы не можете прикреплять файлы к сообщениям
      Вы можете скачивать файлы