новый адрес
Мега распродажа FORZA HORIZON 4 ULTIMATE+ВСЕ DLC+ОНЛАЙН всего за 499р. 349 руб. (супер цена). Внимание количество ограничено!!!

iTunes

1+1

iTunes

мы

iTunes

1

iTunes

Чернобыль

iTunes

Ральф против интернета

Лицензия

ПШазам

Лицензия

Игра престолов

Лицензия

30
pack

ВАЖНО

!!Акция!!

Alien_RageХит недели

RePack

Resident Evil 21

ИГРА 18+

pack

RePack

Metro:Exodus

!!Акция!!

Alien_Rage

RePack

fifa19

RePack

Assassins Creed: Odyssey

RePack

NEED FOR SPEED™ PAYBACK

3 сезон

9 сезон

Бесстыжие 9 сезон

Все сериалы

все сериалы на PB.wtf

RePack

FAR CRY 5
Ребята, катастрофически не хватает 1900р. для оплаты серверов за Октябрь (всвязи с блокировками трафик упал в 3 раза), 1-2р., выручайте.
  

Шел четвертый год войны... (Георгий Николаенко) [1983 г., Военный, Драма, DVDRip] pb.wtf

Шел четвертый год войны... через торрент pb.wtf

Размер: 1.37 GB | Добавлен: 5 лет 6 мес. назад | Торрент скачан:58 раз
Скачать  

04-05-2014 19:06 Шел четвертый год войны... Скачать торрент  

Шел четвертый год войны...Год выпуска: 1983
Страна: СССР Студия Горького
Жанр: Военный, Драма
Продолжительность: 01:21:41

Режиссер: Георгий Николаенко
Сценарий: Александр Беляев, Георгий Николаенко

Премьера в мире: 12 сентября 1983


В ролях: Юрий Сорокин, Николай Еременко мл., Александр Збруев, Николай Олялин, Александр Лебедев, Лев Дуров, Людмила Савельева, Вячеслав Баранов, Владимир Смирнов, Николай Скоробогатов, Тимофей Спивак, Александр Денисов, Владимир Мащенко.
Описание:По повести Александра Беляева «Тайна глухого леса». 1944 год. На одном из участков фронта советское командование готовит крупное наступление. Войска должны пройти через лесной массив, охраняемый фашистами. Для выяснений целей вражеских формирований в этот район направляется группа разведчиков...
Качество: DVDRip
Формат: AVI
Видео кодек: DivX
Аудио кодек: AC3
Видео: DivX 5, 672x384, 25.00fps, 2 131 Kbps
Аудио: Dolby AC3, 48000Hz, stereo, 256kbps
Релиз от: Devprojman






General
Complete name : I:\01 01 01\Shel chetvertij god vojni.avi
Format : AVI
Format/Info : Audio Video Interleave
File size : 1.37 GiB
Duration : 1h 21mn
Overall bit rate : 2 396 Kbps
Writing application : VirtualDubMod 1.5.10.2 (build 2540/release)
Writing library : VirtualDubMod build 2540/release

Video
ID : 0
Format : MPEG-4 Visual
Format settings, BVOP : 1
Format settings, QPel : No
Format settings, GMC : No warppoints
Format settings, Matrix : Default (H.263)
Muxing mode : Packed bitstream
Codec ID : DX50
Codec ID/Hint : DivX 5
Duration : 1h 21mn
Bit rate : 2 131 Kbps
Width : 672 pixels
Height : 384 pixels
Display aspect ratio : 16:9
Frame rate : 25.000 fps
Color space : YUV
Chroma subsampling : 4:2:0
Bit depth : 8 bits
Scan type : Progressive
Compression mode : Lossy
Bits/(Pixel*Frame) : 0.330
Stream size : 1.22 GiB (89%)
Writing library : DivX 6.8.5 (UTC 2009-08-20)

Audio
ID : 1
Format : AC-3
Format/Info : Audio Coding 3
Mode extension : CM (complete main)
Codec ID : 2000
Duration : 1h 21mn
Bit rate mode : Constant
Bit rate : 256 Kbps
Channel(s) : 2 channels
Channel positions : Front: L R
Sampling rate : 48.0 KHz
Bit depth : 16 bits
Compression mode : Lossy
Stream size : 150 MiB (11%)
Alignment : Split accross interleaves
Interleave, duration : 40 ms (1.00 video frame)
Interleave, preload duration : 500 ms

pb.wtf



Скачать Шел четвертый год войны... через торрент http://pic.kartinco.top/images/6/yotoa.jpg Скачать фильм Шел четвертый год войны... через торрент бесплантно в хорошем качестве Описание:По повести Александра Беляева «Тайна глухого леса». 1944 год. На одном из участков фронта советское командование готовит крупное ... 10 10 8
Info! Золотая раздача, скачанное не засчитывается.
Торрент: Зарегистрирован [2014-05-04 19:06] · скачан: 58 раз
Статус: √ проверено
Размер: 1.37 GB
Как cкачать? Как скачать Шел четвертый год войны... через торрент | qTorrent

% Раздел Тема Автор DL S | L
Кино СССР [ 1.59 GB ] Шел четвертый год войны... [1983 Военный DVDRip-AVC от KORSAR] Parallelo Скачать
2 | 0


>> Регистрируемся здесь <<






Отзывы и комментарии о схеме читаем и пишем здесь: ---> Отзывы и комментарии о схеме

Новые благодарочки в телеграм довольных пользователей:
скриншот   скриншот   скриншот   скриншот   скриншот

05-05-2014 13:27 Шел четвертый год войны... Скачать торрент  

классный фильм!!! не то что большинство теперешнего "синематографа про войну"!!!pb.wtf



    Дорогой пользователь! Огромная просьба, поблагодарите релизера, оцените раздачу и оставьте свои комментарий, если Вы скачали Шел четвертый год войны... через торрент бесплатно! Внесите свою лепту в развитие PiratBit!
    Комментировать посты могут только пользователи прошедшие не сложную регистрацию
    Показать сообщения:    

    Шел четвертый год войны... через торрент
    Скачать бесплатно Шел четвертый год войны...
    Шел четвертый год войны... скачать торрент
    Шел четвертый год войны... смотреть онлайн
    Cкачать фильм Шел четвертый год войны... бесплатно
    Шел четвертый год войны... скачать торрент в хорошем качестве
    Шел четвертый год войны... смотреть онлайн бесплатно в хорошем качестве


    Вы не можете начинать темы
    Вы не можете отвечать на сообщения
    Вы не можете редактировать свои сообщения
    Вы не можете удалять свои сообщения
    Вы не можете голосовать в опросах
    Вы не можете прикреплять файлы к сообщениям
    Вы можете скачивать файлы