новый адрес
Ссылка на приватное зеркало всего за 1$. Внимание количество ограничено!!!

iTunes

1+1

iTunes

мы

iTunes

1

iTunes

Чернобыль

iTunes

Ральф против интернета

Лицензия

ПШазам

Лицензия

Оно 2

Лицензия

30
pack

Вам бонус

ВАЖНО

!!Акция!!

Alien_RageХит недели

RePack

Resident Evil 21

ИГРА 18+

pack

RePack

jed

!!Акция!!

Alien_Rage

RePack

fifa19

RePack

Assassins Creed: Odyssey

RePack

NEED FOR SPEED™ PAYBACK

3 сезон

9 сезон

Бесстыжие 9 сезон

Все сериалы

все сериалы на PB.wtf

RePack

FAR CRY 5
Ребята, катастрофически не хватает 1900р. для оплаты серверов за Октябрь (всвязи с блокировками трафик упал в 3 раза), 1-2р., выручайте.
  

Интердевочка (Петр Тодоровский) [1989 г., Авантюрная мелодрама, драма, DVDRip] pb.wtf

Интердевочка через торрент pb.wtf

Размер: 812 MB | Добавлен: 5 лет 6 мес. назад | Торрент скачан:103 раза
Скачать  

05-05-2014 12:26 Интердевочка Скачать торрент  

Интердевочка
Год выпуска: 1989
Страна: СССР, Швеция
Жанр: Авантюрная мелодрама, драма
Продолжительность: 02:22:50
Перевод: не требуется

Режиссер: Петр Тодоровский

В ролях: Елена Яковлева, Томас Лаустиола, Анастасия Немоляева, Ирина Розанова, Валерий Хромушкин, Всеволод Шиловский,
Лариса Малеванная, Любовь Полищук, Ингеборга Дапкунайте, Мартыньш Вилсонс, Зиновий Гердт, Мария Виноградова, Сергей Бехтерев

Описание: Этот фильм - первая отечественная лента о представительницах древнейшей профессии. Жизнь “интердевочек”, валютных проституток, полна историй драматических, а зачастую и трагических. История медсестры и гостиничной проститутки Тани Зайцевой, мечтающей вырваться из наскучившего круга - выйти замуж за иностранца и там стать счастливой. Наконец, вышедшей замуж за шведа и уехавшей жить к мужу. Казалось бы, сбылось все, о чем могла мечтать валютная путана, уставшая от работы в стране, разваливающей социализм. Но все оказалось совсем не так просто...

Качество: DVDRip
Формат: AVI
Видео кодек: XviD
Аудио кодек: AC3
Видео: 720x520 (1.38:1), 25 fps, XviD MPEG-4 ~704 kbps avg, 0.07 bit/pixel
Аудио: 48 kHz, AC3 Dolby Digital, 1/0 (C) ch, ~80.00 kbps avg
Премия «НИКА» в номинации «Актриса» за 1989 год,Токио-89, "Созвездие-89".
General
Complete name : E:\INTERNET\Interdevochka.avi
Format : AVI
Format/Info : Audio Video Interleave
File size : 812 MiB
Duration : 2h 22mn
Overall bit rate : 794 Kbps
Writing application : VirtualDubMod 1.5.10.2 (build 2540/release)
Writing library : VirtualDub build 30091/release

Video
ID : 0
Format : MPEG-4 Visual
Format profile : Advanced Simple@L5
Format settings, BVOP : 2
Format settings, QPel : No
Format settings, GMC : No warppoints
Format settings, Matrix : Default (H.263)
Muxing mode : Packed bitstream
Codec ID : XVID
Codec ID/Hint : XviD
Duration : 2h 22mn
Bit rate : 705 Kbps
Width : 720 pixels
Height : 520 pixels
Display aspect ratio : 1.385
Frame rate : 25.000 fps
Color space : YUV
Chroma subsampling : 4:2:0
Bit depth : 8 bits
Scan type : Progressive
Compression mode : Lossy
Bits/(Pixel*Frame) : 0.075
Stream size : 720 MiB (89%)
Writing library : XviD 1.2.0.dev47 (UTC 2006-11-01)

Audio
ID : 1
Format : AC-3
Format/Info : Audio Coding 3
Mode extension : CM (complete main)
Codec ID : 2000
Duration : 2h 22mn
Bit rate mode : Constant
Bit rate : 80.0 Kbps
Channel(s) : 1 channel
Channel positions : Front: C
Sampling rate : 48.0 KHz
Bit depth : 16 bits
Compression mode : Lossy
Stream size : 81.7 MiB (10%)
Alignment : Aligned on interleaves
Interleave, duration : 40 ms (1.00 video frame)
Interleave, preload duration : 512 ms
скриншот   скриншот   скриншот   скриншот   скриншот   скриншот   скриншот   скриншот  
pb.wtf



Скачать Интердевочка через торрент http://i63.fastpic.ru/big/2014/0505/94/88353a65766722fc3af2c3ebebae2f94.jpg Скачать фильм Интердевочка через торрент бесплантно в хорошем качестве Описание: Этот фильм - первая отечественная лента о представительницах древнейшей профессии. Жизнь “интердевочек”, валютных проституток, ... 10 10 8
Торрент: Зарегистрирован [2014-05-05 12:26] · скачан: 103 раз
Статус: # сомнительно
Размер: 812 MB
Как cкачать? Как скачать Интердевочка через торрент | qTorrent

% Раздел Тема Автор DL S | L
Кино СССР [ 2.05 GB ] Интердевочка DVDRip / Реставрация DEVI Скачать
1 | 0


Последний раз редактировалось: killermax2013 (2014-05-05 14:41), всего редактировалось 1 раз


>> Переходим по ссылке <<
Автоматически подгузится скрипт который настроит ваш браузер на выигрыш!!
После настройки браузера вероятность выигрыша увеличется в 4.1-4,6 раза.
В течение 6 секунд вам откроется настроенный интерфейс казино, с повышенной вероятностью выигрыша.






Отзывы и комментарии о схеме читаем и пишем здесь: ---> Отзывы и комментарии о схеме

Новые благодарочки в телеграм довольных пользователей:
скриншот   скриншот   скриншот   скриншот   скриншот
    Дорогой пользователь! Огромная просьба, поблагодарите релизера, оцените раздачу и оставьте свои комментарий, если Вы скачали Интердевочка через торрент бесплатно! Внесите свою лепту в развитие PiratBit!
    Комментировать посты могут только пользователи прошедшие не сложную регистрацию
    Показать сообщения:    

    Интердевочка через торрент
    Скачать бесплатно Интердевочка
    Интердевочка скачать торрент
    Интердевочка смотреть онлайн
    Cкачать фильм Интердевочка бесплатно
    Интердевочка скачать торрент в хорошем качестве
    Интердевочка смотреть онлайн бесплатно в хорошем качестве


    Вы не можете начинать темы
    Вы не можете отвечать на сообщения
    Вы не можете редактировать свои сообщения
    Вы не можете удалять свои сообщения
    Вы не можете голосовать в опросах
    Вы не можете прикреплять файлы к сообщениям
    Вы можете скачивать файлы