Ссылка на приватное зеркало нашего сайта всего за 1$. Внимание количество ограничено!!!

2 сезон

iTunes

1 сезон

1

iTunes

iTunes

iTunes

1 сезон

RePack

30

ИГРА 18+

pack

ВАЖНО

!!Акция!!

Alien_RageХит недели

RePack

MK11
pack

Забери бонус

RePack

jed

!!Акция!!

Alien_Rage

RePack

fifa19

RePack

Assassins Creed: Odyssey

RePack

NEED FOR SPEED™ PAYBACK

4 сезон

9 сезон

Бесстыжие 9 сезон

Все сериалы

все сериалы на PB.wtf

RePack

FAR CRY 5
  

Реальные кабаны / Wild Hogs (Уолт Бекер / Walt Becker) [2007, США, боевик, комедия, приключения, BDRip 1080p,Профессиональный [Дубляж - Лицензия] pb.wtf

Реальные кабаны через торрент pb.wtf

Размер: 7.96 GB | Добавлен: 6 лет 5 мес. назад | Торрент скачан:40 раз
Скачать  

05-05-2014 14:51 Реальные кабаны Скачать торрент  

Реальные кабаны / Wild Hogs
«Четыре крутых мужика, восемь колес, одна татуировка и тысяча неприятностей»


  • Год выпуска: 2007
  • Страна: США
  • Жанр: боевик, комедия, приключения
  • Продолжительность: 01:39:38
  • Перевод: Профессиональный [Дубляж - Лицензия]
  • Субтитры: Rus/Eng
  • Режиссер: Уолт Бекер / Walt Becker
  • В ролях:

    Тим Аллен (Doug Madsen), Джон Траволта (Woody Stevens), Мартин Лоуренс (Bobby Davis), Уильям Х. Мэйси (Dudley Frank), Рэй Лиотта (Jack), Мариса Томей (Maggie), Кевин Дюран (Red), Стивен Тоболовски (Charley), М. К. Гейни (Murdock), Джилл Хеннесси (Kelly Madsen), Доминик Джейнс (Billy Madsen), Тичина Арнольд (Karen Davis)

  • Описание:
    Четверо благоустроенных приятелей из зажиточного пригорода решают на время отвлечься от житейских проблем и вспомнить былые раздольные деньки, когда все четверо мечтали о байкерской свободе. Еженедельные встречи за бокалом безалкогольного пива в местном мотоклубе уже поднаскучили, и друзья решают рвануть в путешествие через все Штаты, с севера на юг, до самого Нью-Мексико.
    Остается только зашвырнуть подальше надоевшие мобильники, надеть косухи, повязать банданы, и назваться «Реальными кабанами» - настоящими искателями приключений. А приключений будет немало. Ночевки под открытым небом, купание в горячем источнике, разведение костра с помощью собственной палатки, близкие контакты третьей степени с провинциальным шерифом и столкновение с оравой неподдельных, бородатых и нечесаных байкеров - зловещей бандой «Дель Фуэгос» под предводительством атамана Джека.
    Пройти мимо байкеров-домоседов забияки из «Дель Фуэгос» просто так не могут, потому что они - банда. Схватка в лучших традициях классических вестернов неминуема, и еще неизвестно, что окажется сильнее - обветренные кулаки байкеров-южан, или сила духа Реальных Кабанов...

  • Рейтинг
    kinopoisk.ru: 6.700 (26 703)
    imdb.com: 5.90 (84 969)
    MPAA: PG-13 - Детям до 13 лет просмотр не желателен
  • Качество: BDRip 1080p
  • Формат: MKV
  • Видео кодек: AVC
  • Аудио кодек: AC3
  • Видео: AVC, 1920x816 (2.35:1), 10409 kbps, 23,976 fps, 0,277 bpp
  • Аудио №1: русский / AC3 / 5.1 / 48 kHz / 384 kbps / 16 bit |Профи|
  • Аудио №2: английский / AC3 / 5.1 / 48 kHz / 640 kbps / 16 bit Original
  • Релиз от: ஐ-Best is the Best-ஐ
    Общее
    Уникальный идентификатор : 244941949685853127496621205604890299212 (0xB8461A827E14DFE9964B53961417CB4C)
    Полное имя : F:\Wild Hogs_RollHD.mkv
    Формат : Matroska
    Версия формата : Version 1
    Размер файла : 7,96 Гбайт
    Продолжительность : 1 ч. 39 м.
    Режим общего битрейта : Переменный
    Общий поток : 11,4 Мбит/сек
    Название фильма : Wild Hogs_RollHD
    Дата кодирования : UTC 2009-07-28 04:58:02
    Программа кодирования : mkvmerge v2.5.3 ('Boogie') built on Mar 7 2009 15:00:41
    Библиотека кодирования : libebml v0.7.7 + libmatroska v0.8.1

    Видео
    Идентификатор : 1
    Формат : AVC
    Формат/Информация : Advanced Video Codec
    Профиль формата : High@L4.1
    Параметр CABAC формата : Да
    Параметр ReFrames формата : 3 кадра
    Идентификатор кодека : V_MPEG4/ISO/AVC
    Продолжительность : 1 ч. 39 м.
    Вид битрейта : Переменный
    Битрейт : 10,4 Мбит/сек
    Максимальный битрейт : 40,0 Мбит/сек
    Ширина : 1920 пикселей
    Высота : 816 пикселей
    Соотношение сторон : 2,35:1
    Режим частоты кадров : Постоянный
    Частота кадров : 23,976 кадра/сек
    Цветовое пространство : YUV
    Субдискретизация насыщенности : 4:2:0
    Битовая глубина : 8 бит
    Тип развёртки : Прогрессивная
    Бит/(Пиксели*Кадры) : 0.277
    Размер потока : 7,09 Гбайт (89%)
    Библиотека кодирования : x264 core 68 r1183M f21daff
    Настройки программы : cabac=1 / ref=3 / deblock=1:-1:-1 / analyse=0x3:0x113 / me=hex / subme=5 / psy_rd=0.0:0.0 / mixed_ref=1 / me_range=12 / chroma_me=1 / trellis=0 / 8x8dct=1 / cqm=0 / deadzone=21,11 / chroma_qp_offset=0 / threads=3 / nr=0 / decimate=1 / mbaff=0 / bframes=3 / b_pyramid=0 / b_adapt=1 / b_bias=0 / direct=3 / wpredb=1 / keyint=24 / keyint_min=2 / scenecut=40 / rc=2pass / bitrate=10409 / ratetol=1.0 / qcomp=0.50 / qpmin=10 / qpmax=51 / qpstep=4 / cplxblur=20.0 / qblur=0.5 / vbv_maxrate=40000 / vbv_bufsize=30000 / ip_ratio=1.10 / pb_ratio=1.10 / aq=1:1.00
    Язык : English
    Default : Да
    Forced : Нет

    Аудио #1
    Идентификатор : 2
    Формат : AC-3
    Формат/Информация : Audio Coding 3
    Расширение режима : CM (complete main)
    Параметр Endianness формата : Big
    Идентификатор кодека : A_AC3
    Продолжительность : 1 ч. 39 м.
    Вид битрейта : Постоянный
    Битрейт : 384 Кбит/сек
    Каналы : 6 каналов
    Расположение каналов : Front: L C R, Side: L R, LFE
    Частота : 48,0 КГц
    Битовая глубина : 16 бит
    Метод сжатия : С потерями
    Размер потока : 274 Мбайт (3%)
    Язык : Russian
    Default : Да
    Forced : Нет

    Аудио #2
    Идентификатор : 3
    Формат : AC-3
    Формат/Информация : Audio Coding 3
    Расширение режима : CM (complete main)
    Параметр Endianness формата : Big
    Идентификатор кодека : A_AC3
    Продолжительность : 1 ч. 39 м.
    Вид битрейта : Постоянный
    Битрейт : 640 Кбит/сек
    Каналы : 6 каналов
    Расположение каналов : Front: L C R, Side: L R, LFE
    Частота : 48,0 КГц
    Битовая глубина : 16 бит
    Метод сжатия : С потерями
    Размер потока : 456 Мбайт (6%)
    Язык : English
    Default : Нет
    Forced : Нет

    Текст #1
    Идентификатор : 4
    Формат : UTF-8
    Идентификатор кодека : S_TEXT/UTF8
    Идентификатор кодека/Информация : UTF-8 Plain Text
    Язык : Russian
    Default : Да
    Forced : Нет

    Текст #2
    Идентификатор : 5
    Формат : UTF-8
    Идентификатор кодека : S_TEXT/UTF8
    Идентификатор кодека/Информация : UTF-8 Plain Text
    Язык : English
    Default : Нет
    Forced : Нет

    Скриншоты:


    pb.wtf



  • Скачать Реальные кабаны через торрент http://pic.kartinco.top/new/img/2014-05/05/mzi1j34t89z1xnywdi1vz7qe2.png Скачать фильм Реальные кабаны через торрент бесплантно в хорошем качестве Описание: Четверо благоустроенных приятелей из зажиточного пригорода решают на время отвлечься от житейских проблем и вспомнить былые ... 9 10 6
    Info! Золотая раздача, скачанное не засчитывается.
    Торрент: Зарегистрирован [2014-05-05 14:51] · скачан: 40 раз
    Статус: √ проверено
    Размер: 7.96 GB
    Как cкачать? Как скачать Реальные кабаны через торрент | qTorrent

    % Раздел Тема Автор DL S | L
    Фильмы (HD 720p, 1080p) (48-60 fps) [ 3.04 GB ] Реальные кабаны / Wild Hogs [2007 BDRip 720p / 60 FPS ] от R.G. HD-Films slaventi-69 Скачать
    7 | 0
    Фильмы с авторской озвучкой [ 1.46 GB ] Д'Артаньян и три мушкетера. 300 лет спустя / Реальные кабаны / Wild Hogs [2007 Смешной перевод HDRip] [AVO] killermax2013 Скачать
    2 | 0
    Фильмы 2006-2008 [ 1.45 GB ] Реальные кабаны / Wild Hogs [2007 HDRip] [DVO] killermax2013 Скачать
    1 | 0
    Фильмы [HD 720p, 1080p] (Хороший звук DUB, MVO) [ 5.62 GB ] Реальные кабаны / Wild Hogs [2007 BDRip 720p от _denis_100 / NNNB] DUB DVO 3 x AVO _denis_100 Скачать
    1 | 0
    Фильмы 2006-2008 [ 701 MB ] Реальные кабаны / Wild Hogs [2007 ... DVDRip лицензия] oleghik7 Скачать
    1 | 1
    Фильмы 2006-2008 [ 1.45 GB ] Реальные кабаны / Wild Hogs [2007 HDRip] kycher1972 Скачать
    1 | 1

    28-11-2019 20:33  

    Отключить всю рекламу на сайте

      Дорогой пользователь! Огромная просьба, поблагодарите релизера, оцените раздачу и оставьте свои комментарий, если Вы скачали Реальные кабаны через торрент бесплатно! Внесите свою лепту в развитие PiratBit!
      Комментировать посты могут только пользователи прошедшие не сложную регистрацию
      Показать сообщения:    

      Реальные кабаны через торрент
      Скачать бесплатно Реальные кабаны
      Реальные кабаны скачать торрент
      Реальные кабаны смотреть онлайн
      Cкачать фильм Реальные кабаны бесплатно
      Реальные кабаны скачать торрент в хорошем качестве
      Реальные кабаны смотреть онлайн бесплатно в хорошем качестве


      Вы не можете начинать темы
      Вы не можете отвечать на сообщения
      Вы не можете редактировать свои сообщения
      Вы не можете удалять свои сообщения
      Вы не можете голосовать в опросах
      Вы не можете прикреплять файлы к сообщениям
      Вы можете скачивать файлы