2 сезон

iTunes

1 сезон

1

iTunes

iTunes

iTunes

1 сезон

RePack

30

ИГРА 18+

pack

ВАЖНО

!!Акция!!

Alien_RageХит недели

RePack

MK11
pack

Забери бонус

RePack

jed

!!Акция!!

Alien_Rage

RePack

fifa19

RePack

Assassins Creed: Odyssey

RePack

NEED FOR SPEED™ PAYBACK

4 сезон

9 сезон

Бесстыжие 9 сезон

Все сериалы

все сериалы на PB.wtf

RePack

FAR CRY 5
  

Очень плохие парни / Big Bad Wolves (Аарон Кешалес / Aharon Keshales, Навот Папушадо / Navot Papushado) [2013, Израиль, триллер, криминал, комедия, BDRip 1080p, MVO [Лицензия] от R.G. HD-Films pb.wtf

Очень плохие парни через торрент pb.wtf

Размер: 9.02 GB | Добавлен: 6 лет 5 мес. назад | Торрент скачан:81 раз
Скачать  

05-05-2014 16:34 Очень плохие парни Скачать торрент  


Очень плохие парни / Big Bad Wolves
«Some men are created evil»

Год выпуска: 2013
Страна:Израиль
Жанр:триллер, криминал, комедия
Продолжительность:01:49:43
Перевод:Профессиональный (многоголосый, закадровый)[Лицензия]
Субтитры: английские
Режиссер:Аарон Кешалес / Aharon Keshales, Навот Папушадо / Navot Papushado

  • В ролях:

    Лиор Ашкенази (Micki), Ротем Кейнан (Dror), Цахи Град (Gidi), Довале Гликман (Yoram), Менаш Ной (Rami), Двир Бенедек (Tsvika), Каис Насеф (Man on horse), Нати Клюгер (Eti), Ами Вайнберг (Principal Meir), Гай Адлер (Eli), Артур Перри (Ofer), Гур Бентвич (Shauli)

  • Описание:
    Серия жестоких убийств связала в тугой узел судьбы трех людей: отца жертвы, полицейского и главного подозреваемого. Отец жаждет мести. Полицейский действует за рамками закона. А главный подозреваемый - преподаватель теологии - отпущен на свободу по недосмотру полиции.

  • Мировая премьера:21 апреля 2013


      Качество: BDRip 1080p
      Формат: MKV
      Видео кодек: AVC
      Аудио кодек:DTS /AC3
      Видео: AVC, 1920x808 (2.40:1), 8847 kbps, 23,976 fps, 0,238 bpp
      Аудио №1: русский / AC3 / 5.1 / 48 kHz / 448 kbps / 16 bit || MVO [Лицензия]
      Аудио №2: русский / AC3 / 2.0 / 48 kHz / 384 kbps / 16 bit || MVO [online movies]
      Аудио №3: русский / AC3 / 5.1 / 48 kHz / 384 kbps / 16 bit || VO [Andi]
      Аудио №4: русский / AC3 / 2.0 / 44 kHz / 192 kbps / 16 bit || VO [ХиХиДок]
      Аудио №5: Hebrew / DTS / 5.1 / 48 kHz / 1510 kbps / 24 bit/ -Оригинал


    Код:

    General
    Unique ID                                : 175338996081938695026833305328341341078 (0x83E90FF2B742F81E8E86D5B0ABC1D396)
    Complete name                            : D:\Торенты\Big.Bad.Wolves.2013.Blu.Ray.1080p .piratbit.cc.mkv
    Format                                   : Matroska
    Format version                           : Version 4 / Version 2
    File size                                : 9.02 GiB
    Duration                                 : 1h 49mn
    Overall bit rate                         : 11.8 Mbps
    Movie name                               : Release for Piratbit.net_R.G. HD-Films
    Encoded date                             : UTC 2014-05-05 16:17:09
    Writing application                      : mkvmerge v6.9.1 ('Blue Panther') 64bit built on Apr 18 2014 18:23:38
    Writing library                          : libebml v1.3.0 + libmatroska v1.4.1
    Attachment                               : Yes

    Video
    ID                                       : 1
    Format                                   : AVC
    Format/Info                              : Advanced Video Codec
    Format profile                           : High@L4.1
    Format settings, CABAC                   : Yes
    Format settings, ReFrames                : 5 frames
    Codec ID                                 : V_MPEG4/ISO/AVC
    Duration                                 : 1h 49mn
    Bit rate                                 : 8 847 Kbps
    Width                                    : 1 920 pixels
    Height                                   : 808 pixels
    Display aspect ratio                     : 2.40:1
    Frame rate                               : 23.976 fps
    Color space                              : YUV
    Chroma subsampling                       : 4:2:0
    Bit depth                                : 8 bits
    Scan type                                : Progressive
    Bits/(Pixel*Frame)                       : 0.238
    Stream size                              : 6.60 GiB (73%)
    Title                                    : Release for Piratbit.net_R.G. HD-Films
    Writing library                          : x264 core 142 r2409 d6b4e63
    Encoding settings                        : cabac=1 / ref=5 / deblock=1:0:0 / analyse=0x3:0x133 / me=umh / subme=7 / psy=1 / psy_rd=1.00:0.00 / mixed_ref=1 / me_range=16 / chroma_me=1 / trellis=1 / 8x8dct=1 / cqm=0 / deadzone=21,11 / fast_pskip=0 / chroma_qp_offset=-2 / threads=12 / lookahead_threads=2 / sliced_threads=0 / nr=0 / decimate=1 / interlaced=0 / bluray_compat=0 / constrained_intra=0 / bframes=3 / b_pyramid=2 / b_adapt=2 / b_bias=0 / direct=3 / weightb=1 / open_gop=0 / weightp=2 / keyint=240 / keyint_min=23 / scenecut=40 / intra_refresh=0 / rc_lookahead=50 / rc=2pass / mbtree=1 / bitrate=8847 / ratetol=1.0 / qcomp=0.60 / qpmin=0 / qpmax=69 / qpstep=4 / cplxblur=20.0 / qblur=0.5 / ip_ratio=1.40 / aq=1:1.00
    Language                                 : English
    Default                                  : Yes
    Forced                                   : No

    Audio #1
    ID                                       : 2
    Format                                   : AC-3
    Format/Info                              : Audio Coding 3
    Mode extension                           : CM (complete main)
    Codec ID                                 : A_AC3
    Duration                                 : 1h 49mn
    Bit rate mode                            : Constant
    Bit rate                                 : 448 Kbps
    Channel(s)                               : 6 channels
    Channel positions                        : Front: L C R, Side: L R, LFE
    Sampling rate                            : 48.0 KHz
    Bit depth                                : 16 bits
    Compression mode                         : Lossy
    Stream size                              : 352 MiB (4%)
    Language                                 : Russian
    Default                                  : Yes
    Forced                                   : Yes

    Audio #2
    ID                                       : 3
    Format                                   : AC-3
    Format/Info                              : Audio Coding 3
    Mode extension                           : CM (complete main)
    Codec ID                                 : A_AC3
    Duration                                 : 1h 49mn
    Bit rate mode                            : Constant
    Bit rate                                 : 384 Kbps
    Channel(s)                               : 2 channels
    Channel positions                        : Front: L R
    Sampling rate                            : 48.0 KHz
    Bit depth                                : 16 bits
    Compression mode                         : Lossy
    Stream size                              : 301 MiB (3%)
    Title                                    : online movies
    Language                                 : Russian
    Default                                  : No
    Forced                                   : No

    Audio #3
    ID                                       : 4
    Format                                   : AC-3
    Format/Info                              : Audio Coding 3
    Mode extension                           : CM (complete main)
    Codec ID                                 : A_AC3
    Duration                                 : 1h 49mn
    Bit rate mode                            : Constant
    Bit rate                                 : 384 Kbps
    Channel(s)                               : 6 channels
    Channel positions                        : Front: L C R, Side: L R, LFE
    Sampling rate                            : 48.0 KHz
    Bit depth                                : 16 bits
    Compression mode                         : Lossy
    Stream size                              : 301 MiB (3%)
    Title                                    : Andi
    Language                                 : Russian
    Default                                  : No
    Forced                                   : No

    Audio #4
    ID                                       : 5
    Format                                   : AC-3
    Format/Info                              : Audio Coding 3
    Mode extension                           : CM (complete main)
    Codec ID                                 : A_AC3
    Duration                                 : 1h 49mn
    Bit rate mode                            : Constant
    Bit rate                                 : 192 Kbps
    Channel(s)                               : 2 channels
    Channel positions                        : Front: L R
    Sampling rate                            : 44.1 KHz
    Bit depth                                : 16 bits
    Compression mode                         : Lossy
    Stream size                              : 151 MiB (2%)
    Title                                    : хИхИдОК
    Language                                 : Russian
    Default                                  : No
    Forced                                   : No

    Audio #5
    ID                                       : 6
    Format                                   : DTS
    Format/Info                              : Digital Theater Systems
    Codec ID                                 : A_DTS
    Duration                                 : 1h 49mn
    Bit rate mode                            : Constant
    Bit rate                                 : 1 510 Kbps
    Channel(s)                               : 6 channels
    Channel positions                        : Front: L C R, Side: L R, LFE
    Sampling rate                            : 48.0 KHz
    Bit depth                                : 24 bits
    Compression mode                         : Lossy
    Stream size                              : 1.16 GiB (13%)
    Language                                 : Hebrew
    Default                                  : No
    Forced                                   : No

    Text
    ID                                       : 7
    Format                                   : UTF-8
    Codec ID                                 : S_TEXT/UTF8
    Codec ID/Info                            : UTF-8 Plain Text
    Language                                 : English
    Default                                  : No
    Forced                                   : No

    Menu
    00:00:00.000                             : en:00:00:00.000
    00:07:02.464                             : en:00:07:02.464
    00:15:34.016                             : en:00:15:34.016
    00:23:52.056                             : en:00:23:52.056
    00:32:09.886                             : en:00:32:09.886
    00:42:29.464                             : en:00:42:29.464
    00:51:50.232                             : en:00:51:50.232
    01:01:32.272                             : en:01:01:32.272
    01:08:44.829                             : en:01:08:44.829
    01:20:57.644                             : en:01:20:57.644
    01:33:44.035                             : en:01:33:44.035
    01:45:31.158                             : en:01:45:31.158

    Скриншоты:
    скриншот   скриншот   скриншот  

    Каталог Новинок (Фильмы-трейлеры, Игры, Сериалы, Мультфильмы)

    Релиз подготовлен специально для Piratbit.net. Синхронизация звука и видео by Raven
    pb.wtf



  • Скачать Очень плохие парни через торрент http://pic.kartinco.top/images/6/stazu.jpg Скачать фильм Очень плохие парни через торрент бесплантно в хорошем качестве Описание:Серия жестоких убийств связала в тугой узел судьбы трех людей: отца жертвы, полицейского и главного подозреваемого. Отец жаждет ... 10 10 5
    Info! Золотая раздача, скачанное не засчитывается.
    Торрент: Зарегистрирован [2014-05-05 16:34] · скачан: 81 раз
    Статус: √ проверено
    Размер: 9.02 GB
    Как cкачать? Как скачать Очень плохие парни через торрент | qTorrent

    % Раздел Тема Автор DL S | L
    Фильмы 2013 [DVDrip, WEB-DLRip, HDrip] [ 1.46 GB ] Очень плохие парни / Big Bad Wolves [2013 HDRip-AVC] White Smoke Скачать
    1 | 0

    28-11-2019 20:33  

    Отключить всю рекламу на сайте

      Дорогой пользователь! Огромная просьба, поблагодарите релизера, оцените раздачу и оставьте свои комментарий, если Вы скачали Очень плохие парни через торрент бесплатно! Внесите свою лепту в развитие PiratBit!
      Комментировать посты могут только пользователи прошедшие не сложную регистрацию
      Показать сообщения:    

      Очень плохие парни через торрент
      Скачать бесплатно Очень плохие парни
      Очень плохие парни скачать торрент
      Очень плохие парни смотреть онлайн
      Cкачать фильм Очень плохие парни бесплатно
      Очень плохие парни скачать торрент в хорошем качестве
      Очень плохие парни смотреть онлайн бесплатно в хорошем качестве


      Вы не можете начинать темы
      Вы не можете отвечать на сообщения
      Вы не можете редактировать свои сообщения
      Вы не можете удалять свои сообщения
      Вы не можете голосовать в опросах
      Вы не можете прикреплять файлы к сообщениям
      Вы можете скачивать файлы