новый адрес
Ссылка на приватное зеркало всего за 1$. Внимание количество ограничено!!!

iTunes

1+1

iTunes

мы

WEB-DL

1

iTunes

Чернобыль

iTunes

Ральф против интернета

Лицензия

ПШазам

Лицензия

Оно 2

Лицензия

30
pack

Вам бонус

ВАЖНО

!!Акция!!

Alien_RageХит недели

RePack

Resident Evil 21

ИГРА 18+

pack

RePack

jed

!!Акция!!

Alien_Rage

RePack

fifa19

RePack

Assassins Creed: Odyssey

RePack

NEED FOR SPEED™ PAYBACK

3 сезон

9 сезон

Бесстыжие 9 сезон

Все сериалы

все сериалы на PB.wtf

RePack

FAR CRY 5
Ребята, катастрофически не хватает 1900р. для оплаты серверов за Октябрь (всвязи с блокировками трафик упал в 3 раза), 1-2р., выручайте.
  

В двух шагах от "Рая" (Тимур Золоев) [1984 г., Драма, военный, исторический, экранизация, DVDRip] pb.wtf

В двух шагах от "Рая" через торрент pb.wtf

Размер: 1.25 GB | Добавлен: 5 лет 7 мес. назад | Торрент скачан:47 раз
Скачать  

05-05-2014 18:20 В двух шагах от "Рая" Скачать торрент  

В двух шагах от "Рая"
Год выпуска: 1984
Страна: СССР Одесская киностудия
Жанр: Драма, военный, исторический, экранизация
Продолжительность: 01:21:26

Режиссер: Тимур Золоев
Сценарий: Георгий Садовников, Сергей Наумов

Премьера в мире: 6 мая 1985

В ролях: Ремигиюс Сабулис, Мартиньш Вилсонс, Алексей Булдаков, Виктор Евграфов, Роланд Загорскис, Мухтарбек Кантемиров, Ирина Мельник, Валентинас Масальскис, Любомирас Лауцявичюс, Николай Олейник
Описание: Фильм по мотивам повести С.Наумова. 1944 год. Советским разведчикам поручено обнаружить и уничтожить стратегически важный объект врага - склад урановой руды в Карпатах, закодированный гитлеровцами под названием "Рай". Он тщательно охраняется войсками специального назначения и альпийскими стрелками. Три группы советских разведчиков не вернулись с задания. И только четвертой группе под командованием Долгинцева ценой невероятных усилий удалось нейтрализовать планы врага.

Качество: DVDRip
Формат: AVI
Видео кодек: XviD
Аудио кодек: AC3
Видео: Xvid 720x544, 25.00fps, 1 998 Kbps
Аудио: Dolby AC3, 48000Hz, stereo, 192kbps
Релиз от: Сталин1879





Complete name : I:\01 01 01\V.dvuch.shagach.ot.Raya.1984.XviD.DVDRip.avi
Format : AVI
Format/Info : Audio Video Interleave
File size : 1.25 GiB
Duration : 1h 21mn
Overall bit rate : 2 197 Kbps
Writing application : VirtualDubMod 1.5.4.1 (build 2178/release)
Writing library : VirtualDubMod build 2178/release

Video
ID : 0
Format : MPEG-4 Visual
Format profile : Simple@L3
Format settings, BVOP : 1
Format settings, QPel : No
Format settings, GMC : No warppoints
Format settings, Matrix : Custom
Codec ID : XVID
Codec ID/Hint : XviD
Duration : 1h 21mn
Bit rate : 1 998 Kbps
Width : 720 pixels
Height : 544 pixels
Display aspect ratio : 4:3
Frame rate : 25.000 fps
Color space : YUV
Chroma subsampling : 4:2:0
Bit depth : 8 bits
Scan type : Progressive
Compression mode : Lossy
Bits/(Pixel*Frame) : 0.204
Stream size : 1.14 GiB (91%)
Writing library : XviD 1.0.1 (UTC 2004-06-05)

Audio
ID : 1
Format : AC-3
Format/Info : Audio Coding 3
Mode extension : CM (complete main)
Codec ID : 2000
Duration : 1h 21mn
Bit rate mode : Constant
Bit rate : 192 Kbps
Channel(s) : 2 channels
Channel positions : Front: L R
Sampling rate : 48.0 KHz
Bit depth : 16 bits
Compression mode : Lossy
Stream size : 112 MiB (9%)
Alignment : Split accross interleaves
Interleave, duration : 96 ms (2.40 video frames)
Interleave, preload duration : 96 ms

pb.wtf



Скачать В двух шагах от "Рая" через торрент http://pic.kartinco.top/images/6/1mujz.jpg Скачать фильм В двух шагах от "Рая" через торрент бесплантно в хорошем качестве Описание: Фильм по мотивам повести С.Наумова. 1944 год. Советским разведчикам поручено обнаружить и уничтожить стратегически важный объект ... 10 10 6
Info! Золотая раздача, скачанное не засчитывается.
Торрент: Зарегистрирован [2014-05-05 18:20] · скачан: 47 раз
Статус: √ проверено
Размер: 1.25 GB
Как cкачать? Как скачать В двух шагах от "Рая" через торрент | qTorrent

28-11-2019 20:33  

Отключить всю рекламу на сайте

    Дорогой пользователь! Огромная просьба, поблагодарите релизера, оцените раздачу и оставьте свои комментарий, если Вы скачали В двух шагах от "Рая" через торрент бесплатно! Внесите свою лепту в развитие PiratBit!
    Комментировать посты могут только пользователи прошедшие не сложную регистрацию
    Показать сообщения:    

    В двух шагах от "Рая" через торрент
    Скачать бесплатно В двух шагах от "Рая"
    В двух шагах от "Рая" скачать торрент
    В двух шагах от "Рая" смотреть онлайн
    Cкачать фильм В двух шагах от "Рая" бесплатно
    В двух шагах от "Рая" скачать торрент в хорошем качестве
    В двух шагах от "Рая" смотреть онлайн бесплатно в хорошем качестве


    Вы не можете начинать темы
    Вы не можете отвечать на сообщения
    Вы не можете редактировать свои сообщения
    Вы не можете удалять свои сообщения
    Вы не можете голосовать в опросах
    Вы не можете прикреплять файлы к сообщениям
    Вы можете скачивать файлы