1 сезон

1 сезон

iTunes

1

КиноПоиск HD

Кинопоиск HD

iTunes

13

1 сезон

RePack

30

Новинка

ВАЖНО

ИГРА 18+

pack

RePack

MK11
pack

Легкие деньги

RePack

jed

RePack

fifa19

RePack

RDR2

RePack

NEED FOR SPEED™ PAYBACK

4 сезон

9 сезон

Бесстыжие 9 сезон

Все сериалы

все сериалы на PB.wtf

RePack

FAR CRY 5
  
Magnet ссылка

Ромео должен умереть / Romeo Must Die (Анджей Бартковяк / Andrzej Bartkowiak) [2000 г., боевик, триллер, криминал, HDRip-AVC], MVO] (От R.G. PiratFilms) pb.wtf

Ромео должен умереть через торрент pb.wtf

Размер: 2.18 GB | Добавлен: 6 лет 11 мес. назад | Торрент скачан:79 раз
Скачать  

05-05-2014 21:06 Ромео должен умереть Скачать торрент  

Ромео должен умереть
Год выпуска: 2000
Страна: США
Жанр: боевик, триллер, криминал
Продолжительность: 01:55:03
Перевод: профессиональный (полное дублирование) Мост-Видео
Профессиональный (многоголосый, закадровый) d2lab

Режиссер: Анджей Бартковяк / Andrzej Bartkowiak

В ролях: Джет Ли, Алия, Исайя Вашингтон, Расселл Вонг, DMX, Делрой Линдо, Д.Б. Вудсайд, Генри О, Джонкит Ли, Эдоардо Баллерини

Описание: У них есть оружие. У них есть деньги. Но у них нет никаких шансов против бывшего полицейского Хан Синга. Джет Ли играет крутого и готового на все Хана, не без взаимности влюбленного в Триш О Дэй, несмотря на то, что их семьи ведут жестокую войну за передел в Окленде. Опасности объединяют влюбленных, когда они пытаются выяснить истинные причины кровавых разборок.

Качество: HDRip-AVC
Формат: MKV
Видео кодек: AVC
Аудио кодек: AC3
Видео: AVC, 1024x426 (2.40:1), 23.976 fps, 1 939 Kbps (0.185 bit/pixel)
Аудио#1: AC-3, 48.0 KHz, 6 ch, 384 Kbps, CBR профессиональный (Дубляж) Мост-Видео
Аудио#2: AC-3, 48.0 KHz, 6 ch, 384 Kbps, CBR Профессиональный (многоголосый, закадровый) d2lab
Релиз от: Рип by White Smoke
скриншот   скриншот   скриншот   скриншот   скриншот   скриншот   скриншот   скриншот   скриншот  

Код:

---[Information] [05.05.2014 8:44:18] x264 [info]: frame I:1624  Avg QP:17.14  size: 57421  PSNR Mean Y:46.49 U:48.82 V:50.51 Avg:47.25 Global:46.91
---[Information] [05.05.2014 8:44:18] x264 [info]: frame P:40029 Avg QP:20.27  size: 18586  PSNR Mean Y:44.06 U:47.53 V:49.52 Avg:44.97 Global:44.46
---[Information] [05.05.2014 8:44:18] x264 [info]: frame B:123882 Avg QP:22.79  size:  6744  PSNR Mean Y:43.11 U:47.12 V:49.31 Avg:44.12 Global:43.60
---[Information] [05.05.2014 8:44:18] x264 [info]: consecutive B-frames:  3.2%  4.8% 11.1% 24.6% 19.3%

Общее
Уникальный идентификатор                 : 218883939976508520775608725774377180415 (0xA4AB8370738C75D1A6E365C08C1C5CFF)
Полное имя                               : D:\Games\Romeo.dolzhen.umeret.2000.HDRip-AVC.by.White Smoke.R.G.PiratFilms.mkv
Формат                                   : Matroska
Версия формата                           : Version 4 / Version 2
Размер файла                             : 2,18 Гбайт
Продолжительность                        : 1 ч. 55 м.
Общий поток                              : 2708 Кбит/сек
Название фильма                          : Romeo.dolzhen.umeret.2000.HDRip-AVC.by.White Smoke.R.G.PiratFilms.mkv
Дата кодирования                         : UTC 2014-05-05 12:43:56
Программа кодирования                    : mkvmerge v6.8.0 ('Theme for Great Cities') 64bit built on Mar  2 2014 21:34:26
Библиотека кодирования                   : libebml v1.3.0 + libmatroska v1.4.1

Видео
Идентификатор                            : 1
Формат                                   : AVC
Формат/Информация                        : Advanced Video Codec
Профиль формата                          : High@L4.1
Параметр CABAC формата                   : Да
Параметр ReFrames формата                : 12 кадров
Идентификатор кодека                     : V_MPEG4/ISO/AVC
Продолжительность                        : 1 ч. 55 м.
Битрейт                                  : 1939 Кбит/сек
Ширина                                   : 1024 пикселя
Высота                                   : 426 пикселей
Соотношение сторон                       : 2,40:1
Режим частоты кадров                     : Постоянный
Частота кадров                           : 23,976 кадра/сек
Цветовое пространство                    : YUV
Субдискретизация насыщенности            : 4:2:0
Битовая глубина                          : 8 бит
Тип развёртки                            : Прогрессивная
Бит/(Пиксели*Кадры)                      : 0.185
Размер потока                            : 1,52 Гбайт (70%)
Библиотека кодирования                   : x264 core 138 r2358 9e941d1
Настройки программы                      : cabac=1 / ref=12 / deblock=1:-3:-3 / analyse=0x3:0x113 / me=umh / subme=9 / psy=1 / psy_rd=1.00:0.00 / mixed_ref=1 / me_range=32 / chroma_me=1 / trellis=2 / 8x8dct=1 / cqm=0 / deadzone=21,11 / fast_pskip=1 / chroma_qp_offset=-2 / threads=12 / lookahead_threads=2 / sliced_threads=0 / nr=0 / decimate=1 / interlaced=0 / bluray_compat=0 / constrained_intra=0 / bframes=8 / b_pyramid=2 / b_adapt=2 / b_bias=8 / direct=1 / weightb=1 / open_gop=0 / weightp=2 / keyint=240 / keyint_min=23 / scenecut=40 / intra_refresh=0 / rc_lookahead=40 / rc=2pass / mbtree=1 / bitrate=1939 / ratetol=1.0 / qcomp=0.65 / qpmin=0 / qpmax=69 / qpstep=4 / cplxblur=20.0 / qblur=0.5 / ip_ratio=1.40 / aq=1:1.00
Язык                                     : English
Default                                  : Да
Forced                                   : Нет

Аудио #1
Идентификатор                            : 2
Формат                                   : AC-3
Формат/Информация                        : Audio Coding 3
Расширение режима                        : CM (complete main)
Параметр Endianness формата              : Big
Идентификатор кодека                     : A_AC3
Продолжительность                        : 1 ч. 55 м.
Вид битрейта                             : Постоянный
Битрейт                                  : 384 Кбит/сек
Каналы                                   : 6 каналов
Расположение каналов                     : Front: L C R, Side: L R, LFE
Частота                                  : 48,0 КГц
Битовая глубина                          : 16 бит
Метод сжатия                             : С потерями
Размер потока                            : 316 Мбайт (14%)
Default                                  : Нет
Forced                                   : Нет

Аудио #2
Идентификатор                            : 3
Формат                                   : AC-3
Формат/Информация                        : Audio Coding 3
Расширение режима                        : CM (complete main)
Параметр Endianness формата              : Big
Идентификатор кодека                     : A_AC3
Продолжительность                        : 1 ч. 55 м.
Вид битрейта                             : Постоянный
Битрейт                                  : 384 Кбит/сек
Каналы                                   : 6 каналов
Расположение каналов                     : Front: L C R, Side: L R, LFE
Частота                                  : 48,0 КГц
Битовая глубина                          : 16 бит
Метод сжатия                             : С потерями
Размер потока                            : 316 Мбайт (14%)
Default                                  : Да
Forced                                   : Нет


За Обложку к релизу спасибо XLASERpb.wtf



Скачать Ромео должен умереть через торрент https://pic.kartinco.top/new/img/2014-05/05/0zu1jcm6c5u1miaz4ihd3qoyz.png Скачать фильм Ромео должен умереть через торрент бесплантно в хорошем качестве Описание: У них есть оружие. У них есть деньги. Но у них нет никаких шансов против бывшего полицейского Хан Синга. Джет Ли играет крутого и ... 9.7 10 11
Info! Золотая раздача, скачанное не засчитывается.
Торрент: Зарегистрирован [2014-05-05 21:06] · скачан: 79 раз
Статус: √ проверено
Размер: 2.18 GB
Как cкачать? Как скачать Ромео должен умереть через торрент | UTorrent

% Раздел Тема Автор DL S | L
T Релизы по Парсеру [Игры, Сериалы и Фильмы и другое...] [ 14.38 GB ] Ромео должен умереть / Romeo Must Die [2000 WEB-DL 1080p] | DUB MVO AVO | Open Matte schultz Скачать
1 | 0
Фильмы с авторской озвучкой [ 1.95 GB ] Ромео должен умереть / Romeo Must Die [2000 DVDRip] [AVO] killermax2013 Скачать
1 | 0
Фильмы до 2000 г. [ 1.48 GB ] Ромео должен умереть / Romeo must die [2000 DVDRip лицензия] samorezz05 Скачать
1 | 0

28-11-2019 20:33  

Отключить всю рекламу на сайте

    Дорогой пользователь! Огромная просьба, поблагодарите релизера, оцените раздачу и оставьте свои комментарий, если Вы скачали Ромео должен умереть через торрент бесплатно! Внесите свою лепту в развитие PiratBit!
    Комментировать посты могут только пользователи прошедшие не сложную регистрацию
    Показать сообщения:    

    Ромео должен умереть через торрент
    Скачать бесплатно Ромео должен умереть
    Ромео должен умереть скачать торрент
    Ромео должен умереть смотреть онлайн
    Cкачать фильм Ромео должен умереть бесплатно
    Ромео должен умереть скачать торрент в хорошем качестве
    Ромео должен умереть смотреть онлайн бесплатно в хорошем качестве


    Вы не можете начинать темы
    Вы не можете отвечать на сообщения
    Вы не можете редактировать свои сообщения
    Вы не можете удалять свои сообщения
    Вы не можете голосовать в опросах
    Вы не можете прикреплять файлы к сообщениям
    Вы можете скачивать файлы