Ссылка на приватное зеркало нашего сайта всего за 1$. Внимание количество ограничено!!!

2 сезон

iTunes

1 сезон

1

2 сезон

2 сезон

iTunes

1 сезон

RePack

30

Ultimate

ВАЖНО

ИГРА 18+

pack

RePack

MK11
pack

Забери бонус

RePack

jed

!!Акция!!

Alien_Rage

RePack

fifa19

RePack

Assassins Creed: Odyssey

RePack

NEED FOR SPEED™ PAYBACK

4 сезон

9 сезон

Бесстыжие 9 сезон

Все сериалы

все сериалы на PB.wtf

RePack

FAR CRY 5
  

Терминал / The Terminal (Стивен Спилберг) [2004 г., драма, комедия, мелодрама,BDRemux , Дубляж, лицензия] pb.wtf

Терминал через торрент pb.wtf

Размер: 31.69 GB | Добавлен: 6 лет 6 мес. назад | Торрент скачан:56 раз
Скачать  

05-05-2014 22:56 Терминал Скачать торрент  

Название: Терминал
Оригинальное название: The Terminal
Год выхода: 2004
Страна: США, DreamWorks SKG, Amblin Entertainment, Parkes/MacDonald Productions
Продолжительность: 02:08:45
Перевод: Дублированный + профессиональный многоголосый + авторский
Субтитры: Русские (полные), английские (полные, SDH).
Жанр: Драма, комедия
Режиссер: Стивен Спилберг
В ролях: Том Хэнкс, Кэтрин Зета-Джонс, Стэнли Туччи, Чи МакБрайд, Диего Луна, Бэрри Шебака Хенли, Кумар Паллана, Зои Салдана, Эдди Джонс, Джуд Чикколелла, Кори Рейнольдс, Гильермо Диас, Рини Белл, Стивен Мендел, Валерий Николаев, Майкл Нури, Ана Мария Квинтана, Боб Моррисей, Саша Спилберг, Сьюзэн Слоум, Мик Скриба, Джим Ишида, Карлис Бурк, Стефон Фуллер, Дэн Финнерти

Описание:
Фильм рассказывает историю Виктора Наворски, отправившегося в Нью-Йорк из Восточной Европы. Пока Виктор летел в самолете, на его родине произошел государственный переворот. Оказавшись в международном аэропорту имени Джона Кеннеди с паспортом ниоткуда, он не имеет права въехать в Соединенные Штаты и должен коротать свои дни и ночи в гостинице аэропорта, пока война в его родной стране не закончится. Тянутся недели и месяцы, и Виктор обнаруживает, что небольшой мирок терминала может быть наполнен абсурдом, щедростью, амбициями, развлечениями, желанием сохранить свой статус, интуитивной прозорливостью и даже любовью к очаровательной стюардессе Амелии. Виктору удается завоевать симпатии всех, кроме одного человека — чиновника аэропорта Фрэнка Диксона, который считает его бюрократической ошибкой, проблемой, которую он не может контролировать, но от которой жаждет избавиться...


MPAA: PG-13 - Детям до 13 лет просмотр не желателен
Файл
Источник: The Terminal (2004) Blu-ray Disc -BLUEBIRD
Качество: BDRemux 1080p
Формат: MKV
Видео кодек: AVC
Аудио кодек: DTS-HD-AC3
Видео: MPEG-4 AVC, 1920x1080 (16:9), 31294 kbps, 23,976 fps, 0,629 bpp
Аудио №1: русский / AC3 / 5.1 / 48 kHz / 384 kbps / 16 bit |DUB - R5|
Аудио №2: русский / AC3 / 5.1 / 48 kHz / 448 kbps / 16 bit |MVO - TYCOON|
Аудио №3: украинский / AC3 / 2.0 / 48 kHz / 192 kbps / 16 bit |MVO - ТК "Інтер"|
Аудио №4: русский / AC3 / 5.1 / 48 kHz / 448 kbps / 16 bit |VO - В. Королёв|
Аудио №5: украинский / AC3 / 2.0 / 48 kHz / 192 kbps / 16 bit |MVO - ТК "Новий"|
Аудио №6: английский / DTS-HD / 5.1 / 48 kHz / 1575 kbps / 24 bit (Core: 5.1 / 48 kHz / 1510 kbps / 24 bit)
Навигация по главам: есть
Format : Matroska
Format version : Version 4 / Version 2
File size : 31.7 GiB
Duration : 2h 8mn
Overall bit rate : 35.2 Mbps
Movie name : Vikosol
Encoded date : UTC 2014-05-02 06:35:29
Writing application : mkvmerge v6.8.0 ('Theme for Great Cities') 64bit built on Mar 2 2014 21:34:26
Writing library : libebml v1.3.0 + libmatroska v1.4.1

Video
ID : 1
Format : AVC
Format/Info : Advanced Video Codec
Format profile : High@L4.1
Format settings, CABAC : Yes
Format settings, ReFrames : 4 frames
Codec ID : V_MPEG4/ISO/AVC
Duration : 2h 8mn
Bit rate mode : Variable
Bit rate : 31.3 Mbps
Maximum bit rate : 34.2 Mbps
Width : 1 920 pixels
Height : 1 080 pixels
Display aspect ratio : 16:9
Frame rate : 23.976 fps
Color space : YUV
Chroma subsampling : 4:2:0
Bit depth : 8 bits
Scan type : Progressive
Bits/(Pixel*Frame) : 0.629
Stream size : 28.1 GiB (89%)

Audio #1
ID : 2
Format : AC-3
Format/Info : Audio Coding 3
Mode extension : CM (complete main)
Codec ID : A_AC3
Duration : 2h 8mn
Bit rate mode : Constant
Bit rate : 384 Kbps
Channel(s) : 6 channels
Channel positions : Front: L C R, Side: L R, LFE
Sampling rate : 48.0 KHz
Bit depth : 16 bits
Compression mode : Lossy
Stream size : 354 MiB (1%)
Title : DUB - R5
Language : Russian

Audio #2
ID : 3
Format : AC-3
Format/Info : Audio Coding 3
Mode extension : CM (complete main)
Codec ID : A_AC3
Duration : 2h 8mn
Bit rate mode : Constant
Bit rate : 448 Kbps
Channel(s) : 6 channels
Channel positions : Front: L C R, Side: L R, LFE
Sampling rate : 48.0 KHz
Bit depth : 16 bits
Compression mode : Lossy
Stream size : 413 MiB (1%)
Title : MVO - TYCOON
Language : Russian

Audio #3
ID : 4
Format : AC-3
Format/Info : Audio Coding 3
Format profile : Dolby Digital
Mode extension : CM (complete main)
Codec ID : A_AC3
Duration : 2h 8mn
Bit rate mode : Constant
Bit rate : 192 Kbps
Channel(s) : 2 channels
Channel positions : Front: L R
Sampling rate : 48.0 KHz
Bit depth : 16 bits
Compression mode : Lossy
Stream size : 177 MiB (1%)
Title : MVO - ТК "Інтер"
Language : Ukrainian

Audio #4
ID : 5
Format : AC-3
Format/Info : Audio Coding 3
Mode extension : CM (complete main)
Codec ID : A_AC3
Duration : 2h 8mn
Bit rate mode : Constant
Bit rate : 448 Kbps
Channel(s) : 6 channels
Channel positions : Front: L C R, Side: L R, LFE
Sampling rate : 48.0 KHz
Bit depth : 16 bits
Compression mode : Lossy
Stream size : 413 MiB (1%)
Title : VO - В. Королёв
Language : Russian

Audio #5
ID : 6
Format : AC-3
Format/Info : Audio Coding 3
Format profile : Dolby Digital
Mode extension : CM (complete main)
Codec ID : A_AC3
Duration : 2h 8mn
Bit rate mode : Constant
Bit rate : 192 Kbps
Channel(s) : 2 channels
Channel positions : Front: L R
Sampling rate : 48.0 KHz
Bit depth : 16 bits
Compression mode : Lossy
Stream size : 177 MiB (1%)
Title : MVO - ТК "Новий"
Language : Ukrainian

Audio #6
ID : 7
Format : DTS
Format/Info : Digital Theater Systems
Format profile : MA / Core
Codec ID : A_DTS
Duration : 2h 8mn
Bit rate mode : Variable
Bit rate : 1 576 Kbps / 1 510 Kbps
Channel(s) : 6 channels
Channel positions : Front: L C R, Side: L R, LFE
Sampling rate : 48.0 KHz
Bit depth : 24 bits
Compression mode : Lossless / Lossy
Language : English

Text #1
ID : 8
Format : UTF-8
Codec ID : S_TEXT/UTF8
Codec ID/Info : UTF-8 Plain Text
Title : Full
Language : Russian

Text #2
ID : 9
Format : UTF-8
Codec ID : S_TEXT/UTF8
Codec ID/Info : UTF-8 Plain Text
Title : Full
Language : English

Text #3
ID : 10
Format : UTF-8
Codec ID : S_TEXT/UTF8
Codec ID/Info : UTF-8 Plain Text
Title : SDH
Language : English

Menu
00:00:00.000 : :Chapter 01
00:03:15.068 : :Chapter 02
00:08:59.288 : :Chapter 03
00:14:02.049 : :Chapter 04
00:15:27.259 : :Chapter 05
00:18:34.445 : :Chapter 06
00:20:25.641 : :Chapter 07
00:23:04.257 : :Chapter 08
00:27:40.324 : :Chapter 09
00:29:41.863 : :Chapter 10
00:32:28.571 : :Chapter 11
00:35:06.187 : :Chapter 12
00:41:22.146 : :Chapter 13
00:47:21.295 : :Chapter 14
00:52:10.168 : :Chapter 15
00:57:34.075 : :Chapter 16
01:00:36.341 : :Chapter 17
01:05:59.997 : :Chapter 18
01:16:04.560 : :Chapter 19
01:18:18.652 : :Chapter 20
01:29:05.673 : :Chapter 21
01:32:53.859 : :Chapter 22
01:35:16.001 : :Chapter 23
01:42:00.113 : :Chapter 24
01:48:59.491 : :Chapter 25
01:51:01.071 : :Chapter 26
01:57:51.939 : :Chapter 27
02:01:33.703 : :Chapter 28
02:08:45.592 : :Chapter 29
pb.wtf



Скачать Терминал через торрент http://i3.imageban.ru/out/2014/03/05/bf6e755e2cb35eee0d43293ae7090e0c.png Скачать фильм Терминал через торрент бесплантно в хорошем качестве Описание: Фильм рассказывает историю Виктора Наворски, отправившегося в Нью-Йорк из Восточной Европы. Пока Виктор летел в самолете, на его ... 9.8 10 6
Info! Золотая раздача, скачанное не засчитывается.
Торрент: Зарегистрирован [2014-05-05 22:56] · скачан: 56 раз
Статус: √ проверено
Размер: 31.69 GB
Как cкачать? Как скачать Терминал через торрент | qTorrent

% Раздел Тема Автор DL S | L
Фильмы (HD 720p, 1080p) (48-60 fps) [ 14.1 GB ] Терминал / The Terminal [2004 BDRip 1080p / 60 FPS ] Tiberiumsun69 Скачать
2 | 0
Фильмы 2001-2005 [ 2.05 GB ] Терминал / The Terminal [2004 HDRip лицензия] ahm77 Скачать
2 | 0
Фильмы (WEB-DL 720p, 1080p) [ 4.7 GB ] Терминал / The Terminal [2004 HDTVRip ] markfiter Скачать
1 | 0
Фильмы 2001-2005 [ 1.46 GB ] Терминал / The Terminal «Life is waiting.» [2004 HDRip] romkom78 Скачать
1 | 0
Фильмы 2001-2005 [ 1.37 GB ] Терминал/Terminal The [2004 DVDRip] Lil Badun Скачать
1 | 0

28-11-2019 20:33  

Отключить всю рекламу на сайте

06-05-2014 05:17 Терминал Скачать торрент  

отличный фильм!pb.wtf



    Дорогой пользователь! Огромная просьба, поблагодарите релизера, оцените раздачу и оставьте свои комментарий, если Вы скачали Терминал через торрент бесплатно! Внесите свою лепту в развитие PiratBit!
    Комментировать посты могут только пользователи прошедшие не сложную регистрацию
    Показать сообщения:    

    Терминал через торрент
    Скачать бесплатно Терминал
    Терминал скачать торрент
    Терминал смотреть онлайн
    Cкачать фильм Терминал бесплатно
    Терминал скачать торрент в хорошем качестве
    Терминал смотреть онлайн бесплатно в хорошем качестве


    Вы не можете начинать темы
    Вы не можете отвечать на сообщения
    Вы не можете редактировать свои сообщения
    Вы не можете удалять свои сообщения
    Вы не можете голосовать в опросах
    Вы не можете прикреплять файлы к сообщениям
    Вы можете скачивать файлы