Достать ножи: Стеклянная луковица

MVO

Добыча

Дубляж

Уэнсдэй

1 сезон

Тор

Дубляж

13 клиническая

1 сезон

Жестокая ночь

MVO

Одни из нас

1 сезон

Deluxe

pack

Рекомендуем

30

Пиратка

ВАЖНО

ВАЖНО

Ghostwire

Пиратка

jed

RePack

nioh2

RePack

RDR2

RePack

NEED FOR SPEED™ PAYBACK

RePack

скачать торрент

Кинопоиск HD

Острые козырьки 6 сезон

6 сезон

FAR CRY 6

RePack

скачать торрент

Лицензия

скачать торрент

MVO

1

1 сезон

скачать торрент

1 сезон

скачать торрент

Лицензия

  

РобоКоп / RoboCop (Жозе Падилья) [2014, фантастика, боевик, криминал, WEB-DLRip] [Дубляж] [Лицензия / iTunes] + [Orig] [Eng] + [SUB] (RUS)

РобоКоп через торрент pb.wtf

Размер: 1008 MB | Добавлен: 8 лет 8 мес. назад | Торрент скачан:204 раза
Смотреть онлайн | Скачать | Поддержите нас   

06-05-2014 07:38 РобоКоп Скачать торрент  

РобоКоп / RoboCop«У зла нет шансов»

Год выпуска: 2014
Производство: США / Metro-Goldwyn-Mayer (MGM), Columbia Pictures, Strike Entertainment
Жанр: Фантастика, Боевик, Криминал
Продолжительность: 01:57:28
Перевод: Дублированный [Лицензия / iTunes]
Оригинальный аудио поток: английский
Субтитры: Русские (Спасибо HUNTER)

Режиссер: Жозе Падилья

В ролях: Юэль Киннаман, Гари Олдман, Майкл Китон, Сэмюэл Л. Джексон, Эбби Корниш, Джеки Эрл Хейли, Майкл К. Уильямс, Дженнифер Или, Джей Барушель, Марианн Жан-Батист

Описание:
2028 год. Международный конгломерат ОмниКорп лидирует в производстве робототехники. Благодаря разработкам компании Америка успешно побеждает в войнах по всему миру. Но теперь пришло время применить технологию на американской земле. Алекс Мерфи — любящий муж, отец и отличный полицейский, оберегающий порядок в Детройте, получает на службе смертельные ранения. Специалисты ОмниКорпа, используя новейшие разработки, сохраняют ему жизнь. Алекс возвращается на службу в родной город не только с новыми сверхспособностями, но и с проблемами, с которыми не сталкивался ни один живой человек.



Качество: WEB-DLRip
Формат: AVI
Видео кодек: XvID
Аудио кодек: MP3
Видео: 640x272 (2.35:1), 23.976 fps, XviD build 50 ~929 kbps avg, 0.22 bit/pixel
Аудио #1: 48 kHz, MPEG Layer 3, 2 ch, ~128.00 kbps avg [Лицензия / iTunes]
Аудио #2: 48 kHz, MPEG Layer 3, 2 ch, ~128.00 kbps avg [ENG / iTunes]
General
Complete name : E:\INTERNET\Robocop.2014.[DUB_iTunes]+Eng+RUS Sub\Robocop.2014.[DUB_iTunes]+Eng+RUS Sub.avi
Format : AVI
Format/Info : Audio Video Interleave
File size : 1 008 MiB
Duration : 1h 57mn
Overall bit rate : 1 200 Kbps
Writing application : VirtualDubMod 1.5.10.3 (build 2550/release)
Writing library : VirtualDubMod build 2550/release

Video
ID : 0
Format : MPEG-4 Visual
Format profile : Advanced [email protected]
Format settings, BVOP : 2
Format settings, QPel : No
Format settings, GMC : No warppoints
Format settings, Matrix : Default (H.263)
Codec ID : XVID
Codec ID/Hint : XviD
Duration : 1h 57mn
Bit rate : 930 Kbps
Width : 640 pixels
Height : 272 pixels
Display aspect ratio : 2.35:1
Frame rate : 23.976 fps
Color space : YUV
Chroma subsampling : 4:2:0
Bit depth : 8 bits
Scan type : Progressive
Compression mode : Lossy
Bits/(Pixel*Frame) : 0.223
Stream size : 781 MiB (77%)
Writing library : XviD 1.2.1 (UTC 2008-12-04)

Audio #1
ID : 1
Format : MPEG Audio
Format version : Version 1
Format profile : Layer 3
Mode : Joint stereo
Mode extension : MS Stereo
Codec ID : 55
Codec ID/Hint : MP3
Duration : 1h 57mn
Bit rate mode : Constant
Bit rate : 128 Kbps
Channel(s) : 2 channels
Sampling rate : 48.0 KHz
Compression mode : Lossy
Stream size : 108 MiB (11%)
Alignment : Aligned on interleaves
Interleave, duration : 42 ms (1.00 video frame)
Interleave, preload duration : 504 ms

Audio #2
ID : 2
Format : MPEG Audio
Format version : Version 1
Format profile : Layer 3
Mode : Joint stereo
Mode extension : MS Stereo
Codec ID : 55
Codec ID/Hint : MP3
Duration : 1h 57mn
Bit rate mode : Constant
Bit rate : 128 Kbps
Channel(s) : 2 channels
Sampling rate : 48.0 KHz
Compression mode : Lossy
Stream size : 108 MiB (11%)
Alignment : Split accross interleaves
Interleave, duration : 42 ms (1.00 video frame)
Interleave, preload duration : 500 ms
Writing library : LAME3.99r
Encoding settings : -m j -V 4 -q 2 -lowpass 17 -b 128



Скачать РобоКоп через торрент http://i55.fastpic.ru/big/2014/0430/3b/40b200b724eb787b93f0548b4e06353b.jpg Скачать, смотреть онлайн РобоКоп бесплантно в хорошем качестве Описание: 2028 год. Международный конгломерат ОмниКорп лидирует в производстве робототехники. Благодаря разработкам компании Америка ... 9.3 10 16
Торрент: Зарегистрирован [2014-05-06 07:38] · скачан: 204 раз
Статус: √ проверено
Размер: 1008 MB
Как cкачать? Как скачать РобоКоп через торрент | UTorrent

% Раздел Тема Автор DL S | L
Фильмы (HD 720p, 1080p) (48-60 fps) [ 4.07 GB ] РобоКоп / RoboCop | Дубляж | 720p / 60 FPS slaventi-69 Скачать
3 | 0
Фильмы [HD 720p, 1080p] (Хороший звук DUB, MVO) [ 8.25 GB ] Робокоп / RoboCop | Дубляж + Оригинал | 1080p, Дубляж + Оригинал Бумер Скачать
1 | 0
Фильмы (Blu-ray, BD-Remux, HDDVD) [ 35.6 GB ] Робокоп / RoboCop | DUB | 1080p sheker187 Скачать
1 | 0
Фильмы [HD 720p, 1080p] (Хороший звук DUB, MVO) [ 4.14 GB ] РобоКоп / RoboCop | Дубляж | 1080p [HEVC Мичман37 Скачать
2 | 0
Фильмы 2014 [DVDrip, WEB-DLRip, HDrip] [ 2.18 GB ] Робокоп / RoboCop | Лицензия | BDRip-AVC potroks Скачать
1 | 0
Фильмы 2014 [DVDrip, WEB-DLRip, HDrip] [ 1.45 GB ] Робокоп / RoboCop | Лицензия | BDRip-AVC potroks Скачать
1 | 0
Фильмы (DVD фильмы) [ 6.28 GB ] РобоКоп / RoboCop | | 2014, фантастика, боевик, криминал, DVD9 voovaz Скачать
1 | 0

28-11-2019 20:33  


Отключить вcю реклaмy на сайте, в т.ч. и в плеере онлайн просмотра!

06-05-2014 08:09 РобоКоп Скачать торрент  

Очень надеюсь, что продолжение снимать не будут.



06-05-2014 12:28 РобоКоп Скачать торрент  

надеюсь что продолжение снимут фильм супер



06-05-2014 13:47 РобоКоп Скачать торрент  

shurgan1980 писал(а):

надеюсь что продолжение снимут фильм супер

А чем он супер? Я вот посмотрел и не понял. Фильм 87-го года мне понравился больше.



07-05-2014 18:37 РобоКоп Скачать торрент  

на доели переснимать старые фильмы в новом (формате)



07-05-2014 18:37 РобоКоп Скачать торрент  

на доели переснимать старые фильмы в новом (формате)



06-08-2014 16:40 РобоКоп Скачать торрент  

Полная ХРЕНЬ!!!!!!!!!!



    Дорогой пользователь! Огромная просьба, поблагодарите релизера, оцените раздачу и оставьте свои комментарий, если Вы скачали РобоКоп через торрент бесплатно!!
    Комментировать посты могут только пользователи прошедшие не сложную регистрацию
    Показать сообщения:    


    РобоКоп через торрент
    Скачать бесплатно РобоКоп
    РобоКоп скачать торрент
    РобоКоп смотреть онлайн
    Cкачать фильм РобоКоп бесплатно
    РобоКоп скачать торрент в хорошем качестве
    РобоКоп смотреть онлайн бесплатно в хорошем качестве
    Вы не можете начинать темы
    Вы не можете отвечать на сообщения
    Вы не можете редактировать свои сообщения
    Вы не можете удалять свои сообщения
    Вы не можете голосовать в опросах
    Вы не можете прикреплять файлы к сообщениям
    Вы можете скачивать файлы
    РобоКоп / RoboCop [2014, фантастика, боевик, криминал, WEB-DLRip] [Дубляж] [Лицензия / iTunes] + [Orig] [Eng] + [SUB] смотреть онлайн, скачать торрент picoco.icu