1 сезон

1 сезон

iTunes

1

КиноПоиск HD

Кинопоиск HD

iTunes

13

1 сезон

RePack

30

Новинка

ВАЖНО

ИГРА 18+

pack

RePack

MK11
pack

Легкие деньги

RePack

jed

RePack

fifa19

RePack

RDR2

RePack

NEED FOR SPEED™ PAYBACK

4 сезон

9 сезон

Бесстыжие 9 сезон

Все сериалы

все сериалы на PB.wtf

RePack

FAR CRY 5
  
Magnet ссылка

Лохматый папа / The Shaggy Dog (Брайан Роббинс Brian Robbins) [2005 г., фэнтези, комедия, семейный, WEB-DLRip, Дубляж, Лицензия] pb.wtf

Лохматый папа через торрент pb.wtf

Размер: 1.33 GB | Добавлен: 6 лет 11 мес. назад | Торрент скачан:163 раза
Скачать  

06-05-2014 10:41 Лохматый папа Скачать торрент  

Лохматый папа / The Shaggy Dog
Год выпуска: 2005
Страна: США
Жанр: фэнтези, комедия, семейный
Продолжительность: 01:38:59
Перевод: Дубляж, Лицензия
Тип релиза: Лицензия
Субтитры: Русские (Форсированные , Полные)

Режиссер: Брайан Роббинс Brian Robbins

Бюджет: $50 000 000
Премьера в мире: 9 марта 2006




В ролях: Тим Аллен, Кристин Дэвис, Зена Грэй, Спенсер Бреслин, Дэнни Гловер, Роберт Дауни мл, Джошуа Леонард, Шон Пайфром, Бесс Вол, Джэррад Пол

Описание: Все начинается с того, что заместитель окружного прокурора Дэйв Даглас берется за дело, связанное с лабораторией, в которой проводятся опыты над животными. В процессе работы он подвергается воздействию экспериментального сверхсекретного чудо-препарата, вызывающего мутацию генов.

В результате Дэйв начинает временами превращаться в собаку; это очень мешает его карьере, но в то же время помогает ему лучше узнать самого себя и свою семью. Переосмыслив свою жизнь, Дэйв мечтает о том, чтобы вновь стать примерным мужем и отцом, но вначале он должен выполнить благородную миссию - предотвратить осуществление коварных замыслов тех, кто стоит за изобретением сыворотки, превратившей его в шаловливого пса

Качество: WEB-DLRip
Формат: AVI
Видео кодек: XviD
Аудио кодек: AC3
Видео: 720x304 (2.37:1), 23.976 fps, XviD build 73 ~1340 kbps avg, 0.26 bit/pixel
Аудио#1: 48 kHz, AC3 Dolby Digital, 3/2 (L,C,R,l,r) + LFE ch, ~384.00 kbps avg [Дубляж]
Аудио#2: 48 kHz, AC3 Dolby Digital, 2/0 (L,R) ch, ~192.00 kbps avg [ENG]
Релиз от: Deadmauvlad
скриншот   скриншот   скриншот   скриншот   скриншот   скриншот   скриншот   скриншот  

Общее
Полное имя : D:\Рипы выкладка [Deadmauvlad]\Рипы готовые\The.Shaggy.Dog.2006.WEB-DLRip.RUS.ENG.Deadmauvlad\The.Shaggy.Dog.2006.WEB-DLRip.RUS.ENG.Deadmauvlad.avi
Формат : AVI
Формат/Информация : Audio Video Interleave
Размер файла : 1,33 Гбайт
Продолжительность : 1 ч. 38 м.
Общий поток : 1929 Кбит/сек
Название фильма : The.Shaggy.Dog.2006.WEB-DLRip.RUS.ENG.Deadmauvlad
Режиссёр : Deadmauvlad
Жанр : Семейный,Комедия,Фэнтези
Программа кодирования : VirtualDubMod 1.5.10.3 | www.virtualdub-fr.org || (build 2550/release)
Формат оригинала/Имя : Фильм
Правообладатель : Goldenshara

Видео
Идентификатор : 0
Формат : MPEG-4 Visual
Профиль формата : Advanced Simple@L5
Параметр BVOP формата : 1
Параметр QPel формата : Да
Параметр GMC формата : Без точки перехода
Параметр матрицы формата : Выборочная
Идентификатор кодека : XVID
Идентификатор кодека/Подсказка : XviD
Продолжительность : 1 ч. 38 м.
Битрейт : 1342 Кбит/сек
Ширина : 720 пикселей
Высота : 304 пикселя
Соотношение сторон : 2,35:1
Частота кадров : 23,976 кадра/сек
Цветовое пространство : YUV
Субдискретизация насыщенности : 4:2:0
Битовая глубина : 8 бит
Тип развёртки : Прогрессивная
Метод сжатия : С потерями
Бит/(Пиксели*Кадры) : 0.256
Размер потока : 950 Мбайт (70%)
Библиотека кодирования : XviD 73

Аудио #1
Идентификатор : 1
Формат : AC-3
Формат/Информация : Audio Coding 3
Расширение режима : CM (complete main)
Параметр Endianness формата : Big
Идентификатор кодека : 2000
Продолжительность : 1 ч. 38 м.
Вид битрейта : Постоянный
Битрейт : 384 Кбит/сек
Каналы : 6 каналов
Расположение каналов : Front: L C R, Side: L R, LFE
Частота : 48,0 КГц
Битовая глубина : 16 бит
Метод сжатия : С потерями
Размер потока : 271 Мбайт (20%)
Выравнивание : Разделение по промежуткам
Продолжительность промежутка : 42 мс. (1,00 видеокадр)
Время предзагрузки промежутка : 500 мс.

Аудио #2
Идентификатор : 2
Формат : AC-3
Формат/Информация : Audio Coding 3
Расширение режима : CM (complete main)
Параметр Endianness формата : Big
Идентификатор кодека : 2000
Продолжительность : 1 ч. 38 м.
Вид битрейта : Постоянный
Битрейт : 192 Кбит/сек
Каналы : 2 канала
Расположение каналов : Front: L R
Частота : 48,0 КГц
Битовая глубина : 16 бит
Метод сжатия : С потерями
Размер потока : 135 Мбайт (10%)
Выравнивание : Разделение по промежуткам
Продолжительность промежутка : 42 мс. (1,00 видеокадр)
Время предзагрузки промежутка : 500 мс.

Общее
Полное имя : D:\Рипы выкладка [Deadmauvlad]\Рипы готовые\The.Shaggy.Dog.2006.WEB-DLRip.RUS.ENG.Deadmauvlad\The.Shaggy.Dog.2006.WEB-DLRip.RUS.ENG.Deadmauvlad_Rus.srt
Формат : SubRip
Размер файла : 128 Кбайт

Текст
Формат : SubRip
Метод сжатия : Без потерь

Общее
Полное имя : D:\Рипы выкладка [Deadmauvlad]\Рипы готовые\The.Shaggy.Dog.2006.WEB-DLRip.RUS.ENG.Deadmauvlad\The.Shaggy.Dog.2006.WEB-DLRip.RUS.ENG.Deadmauvlad_Rus_Forced.srt
Формат : SubRip
Размер файла : 1,97 Кбайт

Текст
Формат : SubRip
Метод сжатия : Без потерь

pb.wtf



Скачать Лохматый папа через торрент https://pic.kartinco.top/images/6/wujhf.jpg Скачать фильм Лохматый папа через торрент бесплантно в хорошем качестве Описание: Все начинается с того, что заместитель окружного прокурора Дэйв Даглас берется за дело, связанное с лабораторией, в которой ... 8.8 10 4
Торрент: Зарегистрирован [2014-05-06 10:41] · скачан: 163 раз
Статус: √ проверено
Размер: 1.33 GB
Как cкачать? Как скачать Лохматый папа через торрент | UTorrent

% Раздел Тема Автор DL S | L
Фильмы (WEB-DL 720p, 1080p) [ 3.28 GB ] Лохматый папа / The Shaggy Dog [2006 WEB-DL 720p] killermax2013 Скачать
1 | 0

28-11-2019 20:33  

Отключить всю рекламу на сайте

    Дорогой пользователь! Огромная просьба, поблагодарите релизера, оцените раздачу и оставьте свои комментарий, если Вы скачали Лохматый папа через торрент бесплатно! Внесите свою лепту в развитие PiratBit!
    Комментировать посты могут только пользователи прошедшие не сложную регистрацию
    Показать сообщения:    

    Лохматый папа через торрент
    Скачать бесплатно Лохматый папа
    Лохматый папа скачать торрент
    Лохматый папа смотреть онлайн
    Cкачать фильм Лохматый папа бесплатно
    Лохматый папа скачать торрент в хорошем качестве
    Лохматый папа смотреть онлайн бесплатно в хорошем качестве


    Вы не можете начинать темы
    Вы не можете отвечать на сообщения
    Вы не можете редактировать свои сообщения
    Вы не можете удалять свои сообщения
    Вы не можете голосовать в опросах
    Вы не можете прикреплять файлы к сообщениям
    Вы можете скачивать файлы