Ссылка на приватное зеркало всего за 1$. Внимание количество ограничено!!!

iTunes

iTunes

iTunes

1

iTunes

iTunes

iTunes

iTunes

iTunes

30
pack

$ от Little Big

ВАЖНО

!!Акция!!

Alien_RageХит недели

RePack

Resident Evil 21

ИГРА 18+

pack

RePack

jed

!!Акция!!

Alien_Rage

RePack

fifa19

RePack

Assassins Creed: Odyssey

RePack

NEED FOR SPEED™ PAYBACK

4 сезон

9 сезон

Бесстыжие 9 сезон

Все сериалы

все сериалы на PB.wtf

RePack

FAR CRY 5
  

РобоКоп / RoboCop (Жозе Падилья / José Padilha) [2014, США, фантастика, боевик, криминал, WEB-DL 1080p,Профессиональный [Дубляж - Лицензия/ iTunes] pb.wtf

РобоКоп через торрент pb.wtf

Размер: 3.84 GB | Добавлен: 6 лет 2 мес. назад | Торрент скачан:772 раза
Скачать  

06-05-2014 15:08 РобоКоп Скачать торрент  

РобоКоп / RoboCop
«У зла нет шансов»


  • Год выпуска: 2014
  • Страна: США
  • Жанр: фантастика, боевик, криминал
  • Продолжительность: 01:57:30
  • Перевод: Профессиональный [Дубляж - Лицензия/ iTunes]
  • Субтитры: Русские, Украинские, Английские
  • Режиссер: Жозе Падилья / José Padilha
  • В ролях:

    Юэль Киннаман (Alex Murphy / RoboCop), Гари Олдман (Dr. Dennett Norton), Майкл Китон (Raymond Sellars), Эбби Корниш (Clara Murphy), Джеки Эрл Хейли (Rick Mattox), Сэмюэл Л. Джексон (Pat Novak), Майкл К. Уильямс (Jack Lewis), Дженнифер Или (Liz Kline), Марианн Жан-Батист (Chief Karen Dean), Айми Гарсиа (Jae Kim), Джей Барушель (Tom Pope), Джон Пол Руттан (David Murphy)

  • Описание:
    2028 год. Международный конгломерат ОмниКорп лидирует в производстве робототехники. Благодаря разработкам компании Америка успешно побеждает в войнах по всему миру. Но теперь пришло время применить технологию на американской земле. Алекс Мерфи - любящий муж, отец и отличный полицейский, оберегающий порядок в Детройте, получает на службе смертельные ранения. Специалисты ОмниКорпа, используя новейшие разработки, сохраняют ему жизнь. Алекс возвращается на службу в родной город не только с новыми сверхспособностями, но и с проблемами, с которыми не сталкивался ни один живой человек.
  • Рейтинг
    kinopoisk.ru: 6.548 (17 487)
    imdb.com: 6.60 (51 180)
    MPAA: PG-13 - Детям до 13 лет просмотр не желателен
  • Качество: WEB-DL 1080p
  • Формат: MKV
  • Видео кодек: AVC
  • Аудио кодек: AC3
  • Видео: AVC, 1916x796 (2.40:1), 3821 kbps, 23,976 fps, 0,104 bpp
  • Аудио №1: русский / AC3 / 5.1 / 48 kHz / 384 kbps / 16 bit ||
  • Аудио №2: английский / AC3 / 2.0 / 48 kHz / 192 kbps / 16 bit
  • Аудио №3: украинский / AC3 / 2.0 / 48 kHz / 192 kbps / 16 bit
    General
    Unique ID : 171035379198922262478107389129790810408 (0x80AC3740F473E2888E9AAC98A4636928)
    Complete name : D:\Торенты\ROBOCOP.2014.D.WEBDL.1080p.mkv
    Format : Matroska
    Format version : Version 2
    File size : 3.84 GiB
    Duration : 1h 57mn
    Overall bit rate : 4 682 Kbps
    Movie name : ROBOCOP_2014_WEB_DL_1080p_BLUEBIRD
    Encoded date : UTC 2014-05-05 22:35:31
    Writing application : mkvmerge v2.9.8 ('C'est le bon') built on Aug 13 2009 12:49:06
    Writing library : libebml v0.7.7 + libmatroska v0.8.1

    Video
    ID : 1
    Format : AVC
    Format/Info : Advanced Video Codec
    Format profile : High@L4.0
    Format settings, CABAC : Yes
    Format settings, ReFrames : 5 frames
    Codec ID : V_MPEG4/ISO/AVC
    Duration : 1h 57mn
    Bit rate : 3 821 Kbps
    Width : 1 916 pixels
    Height : 796 pixels
    Display aspect ratio : 2.40:1
    Frame rate : 23.976 fps
    Color space : YUV
    Chroma subsampling : 4:2:0
    Bit depth : 8 bits
    Scan type : Progressive
    Bits/(Pixel*Frame) : 0.104
    Stream size : 3.14 GiB (82%)
    Title : ROBOCOP_2014_WEB_DL_1080p_BLUEBIRD
    Language : English
    Default : Yes
    Forced : No
    Color primaries : BT.709-5, BT.1361, IEC 61966-2-4, SMPTE RP177
    Transfer characteristics : BT.709-5, BT.1361
    Matrix coefficients : BT.709-5, BT.1361, IEC 61966-2-4 709, SMPTE RP177

    Audio #1
    ID : 2
    Format : AC-3
    Format/Info : Audio Coding 3
    Mode extension : CM (complete main)
    Codec ID : A_AC3
    Duration : 1h 57mn
    Bit rate mode : Constant
    Bit rate : 384 Kbps
    Channel(s) : 6 channels
    Channel positions : Front: L C R, Side: L R, LFE
    Sampling rate : 48.0 KHz
    Bit depth : 16 bits
    Compression mode : Lossy
    Stream size : 323 MiB (8%)
    Title : DD 5.1 @ 384 kbps [DUB]
    Language : Russian
    Default : Yes
    Forced : No

    Audio #2
    ID : 3
    Format : AC-3
    Format/Info : Audio Coding 3
    Format profile : Dolby Digital
    Mode extension : CM (complete main)
    Codec ID : A_AC3
    Duration : 1h 57mn
    Bit rate mode : Constant
    Bit rate : 192 Kbps
    Channel(s) : 2 channels
    Channel positions : Front: L R
    Sampling rate : 48.0 KHz
    Bit depth : 16 bits
    Compression mode : Lossy
    Stream size : 161 MiB (4%)
    Title : DD 2.0 @ 192 kbps [ORIGINAL]
    Language : English
    Default : No
    Forced : No

    Audio #3
    ID : 4
    Format : AC-3
    Format/Info : Audio Coding 3
    Format profile : Dolby Digital
    Mode extension : CM (complete main)
    Codec ID : A_AC3
    Duration : 1h 57mn
    Bit rate mode : Constant
    Bit rate : 192 Kbps
    Channel(s) : 2 channels
    Channel positions : Front: L R
    Sampling rate : 48.0 KHz
    Bit depth : 16 bits
    Compression mode : Lossy
    Stream size : 161 MiB (4%)
    Title : DD 2.0 @ 192 kbps [DUB]
    Language : Ukrainian
    Default : No
    Forced : No

    Text #1
    ID : 5
    Format : UTF-8
    Codec ID : S_TEXT/UTF8
    Codec ID/Info : UTF-8 Plain Text
    Title : FULL-LENGTH
    Language : Russian
    Default : No
    Forced : No

    Text #2
    ID : 6
    Format : UTF-8
    Codec ID : S_TEXT/UTF8
    Codec ID/Info : UTF-8 Plain Text
    Title : FORCED
    Language : Russian
    Default : Yes
    Forced : Yes

    Text #3
    ID : 7
    Format : UTF-8
    Codec ID : S_TEXT/UTF8
    Codec ID/Info : UTF-8 Plain Text
    Title : FULL-LENGTH
    Language : Ukrainian
    Default : No
    Forced : No

    Text #4
    ID : 8
    Format : UTF-8
    Codec ID : S_TEXT/UTF8
    Codec ID/Info : UTF-8 Plain Text
    Title : FORCED
    Language : Ukrainian
    Default : No
    Forced : No

    Text #5
    ID : 9
    Format : UTF-8
    Codec ID : S_TEXT/UTF8
    Codec ID/Info : UTF-8 Plain Text
    Title : FORCED
    Language : English
    Default : No
    Forced : No

    Menu
    00:00:00.000 : en:00:00:00.000
    00:14:19.000 : en:00:14:19.000
    00:21:54.000 : en:00:21:54.000
    00:32:50.000 : en:00:32:50.000
    00:43:05.000 : en:00:43:05.000
    00:57:22.000 : en:00:57:22.000
    01:12:44.000 : en:01:12:44.000
    01:26:37.000 : en:01:26:37.000
    01:41:32.000 : en:01:41:32.000
    01:50:14.000 : en:01:50:14.000
    01:57:30.967 : en:01:57:30.967

    Скриншоты:


    pb.wtf



  • Скачать РобоКоп через торрент http://i63.fastpic.ru/big/2014/0506/ba/81e9f0d3cf93353456b6ecdfdbe16bba.jpg Скачать фильм РобоКоп через торрент бесплантно в хорошем качестве Описание: 2028 год. Международный конгломерат ОмниКорп лидирует в производстве робототехники. Благодаря разработкам компании Америка ... 9.9 10 26
    Торрент: Зарегистрирован [2014-05-06 15:08] · скачан: 772 раз
    Статус: √ проверено
    Размер: 3.84 GB
    Как cкачать? Как скачать РобоКоп через торрент | qTorrent

    % Раздел Тема Автор DL S | L
    Фильмы [HD 720p, 1080p] (Хороший звук DUB, MVO) [ 7.09 GB ] РобоКоп / RoboCop [1987 BDRip 1080p HEVC ] [Remastered Director's Cut] Мичман37 Скачать
    4 | 0
    Фильмы [HD 720p, 1080p] (Хороший звук DUB, MVO) [ 6.63 GB ] Робокоп 3 / RoboCop 3 [1993 BDRip 1080p HEVC ()] Мичман37 Скачать
    1 | 0
    Фильмы [HD 720p, 1080p] (Хороший звук DUB, MVO) [ 8.2 GB ] Робокоп 2 / RoboCop 2 [1990 BDRip 1080p HEVC ()] Мичман37 Скачать
    1 | 0
    Фильмы (Blu-ray, BD-Remux, HDDVD) [ 35.6 GB ] Робокоп / RoboCop [2014 ремейк BDRemux 1080p] DUB + 3xAVO sheker187 Скачать
    1 | 0
    Сборники и Сиквелы (48-60 fps) [ 31.68 GB ] РобоКоп: Трилогия+Ремейк / RoboCop [1987 1990 1993 2014 BDRip 720p / 60 fps] СидБот60fps Скачать
    1 | 0
    Фильмы [HD 720p, 1080p] (Хороший звук DUB, MVO) [ 4.14 GB ] РобоКоп / RoboCop [2014 BDRip 1080p [HEVC] ] Мичман37 Скачать
    1 | 0
    Сборники и Сиквелы (48-60 fps) [ 46.44 GB ] РобоКоп: Трилогия+Ремейк / RoboCop [1987 1990 1993 2014 BDRip 1080p / 60 fps] СидБот60fps Скачать
    1 | 0

    28-11-2019 20:33  

    Отключить всю рекламу на сайте

    06-05-2014 21:16 РобоКоп Скачать торрент  

    Если не сравнивать с оригиналом то вполне неплохой вышел фильм, слегка затянут вначале но потом все смотрится на одном дыхании.pb.wtf



    08-05-2014 23:43 РобоКоп Скачать торрент  

    когда уже нормальный blu-ray выйдет?!pb.wtf



      Дорогой пользователь! Огромная просьба, поблагодарите релизера, оцените раздачу и оставьте свои комментарий, если Вы скачали РобоКоп через торрент бесплатно! Внесите свою лепту в развитие PiratBit!
      Комментировать посты могут только пользователи прошедшие не сложную регистрацию
      Показать сообщения:    

      РобоКоп через торрент
      Скачать бесплатно РобоКоп
      РобоКоп скачать торрент
      РобоКоп смотреть онлайн
      Cкачать фильм РобоКоп бесплатно
      РобоКоп скачать торрент в хорошем качестве
      РобоКоп смотреть онлайн бесплатно в хорошем качестве


      Вы не можете начинать темы
      Вы не можете отвечать на сообщения
      Вы не можете редактировать свои сообщения
      Вы не можете удалять свои сообщения
      Вы не можете голосовать в опросах
      Вы не можете прикреплять файлы к сообщениям
      Вы можете скачивать файлы