2 сезон

iTunes

1 сезон

1

iTunes

iTunes

iTunes

1 сезон

RePack

30

ИГРА 18+

pack

ВАЖНО

!!Акция!!

Alien_RageХит недели

RePack

MK11
pack

Забери бонус

RePack

jed

!!Акция!!

Alien_Rage

RePack

fifa19

RePack

Assassins Creed: Odyssey

RePack

NEED FOR SPEED™ PAYBACK

4 сезон

9 сезон

Бесстыжие 9 сезон

Все сериалы

все сериалы на PB.wtf

RePack

FAR CRY 5
  

Миссия: невыполнима 3 / Mission: Impossible III (Джей Джей Абрамс / J.J. Abrams) [2006, США, Германия, Китай, боевик, триллер, приключения, BDRip 720p] Дубляж + 3xMVO + DVO + Ukr + Subs от R.G. PiratFilms pb.wtf

Миссия: невыполнима 3 через торрент pb.wtf

Размер: 10.6 GB | Добавлен: 6 лет 5 мес. назад | Торрент скачан:4 раза
Скачать  

06-05-2014 16:40 Миссия: невыполнима 3 Скачать торрент  

Миссия: невыполнима 3 / Mission: Impossible III
«Миссия начинается 04:05:06»
Год выпуска: 2006
Страна: США, Германия, Китай
Жанр: боевик, триллер, приключения
Продолжительность: 02:05:24
Перевод:
|Профессиональный (полное дублирование)
Профессиональный (многоголосый, закадровый) Позитив Мультимедиа
Профессиональный (многоголосый, закадровый) Киномания
Профессиональный (многоголосый, закадровый) Супербит
Профессиональный (двухголосый, закадровый) Гланц и Королева|

Субтитры: Русские, английские

Режиссер: Джей Джей Абрамс / J.J. Abrams
В ролях: Том Круз (Ethan Hunt), Филип Сеймур Хоффман (Owen Davian), Мишель Монахэн (Julia), Билли Крудап (John Musgrave), Винг Реймз (Luther Stickell), Джонатан Риз Майерс (Declan Gormley), Мэгги Кью (Zhen Lei), Кери Рассел (Lindsey Farris), Лоренс Фишбёрн (Theodore Brassel), Саймон Пегг (Benji Dunn), Эдди Марсан (Brownway), Бахар Сумех (Davian's Translator)
Описание:
Суперагент Итан Хант решил расстаться с оперативной работой и заняться подготовкой курсантов. Он даже решил жениться на привлекательной, ни о чём не ведающей Джулии. Руководство ЦРУ просит его принять участие в последней операции: спасении его бывшей ученицы Линдси Феррис из лап торговца оружием Оуэна Дэвиана. Мог ли Итан предположить, что за этим заданием последует целая череда смертельно опасных миссий в Ватикане, Нью-Йорке и Шанхае?

Рейтинг

MPAA: PG-13 - Детям до 13 лет просмотр не желателен

Качество: BDRip 720p |Исходник: Blu-Ray 1080p
Формат: MKV
Видео кодек: AVC
Аудио кодек: AC3
Видео: AVC, 1280x546 (2.35:1), 8452 kbps, 23,976 fps, 0,504 bpp
Аудио №1: русский / AC3 / 5.1 / 48 kHz / 640 kbps / 16 bit |Дубляж|
Аудио №2: русский / AC3 / 5.1 / 48 kHz / 448 kbps / 16 bit |Позитив Мультимедиа|
Аудио №3: русский / AC3 / 5.1 / 48 kHz / 448 kbps / 16 bit |Киномания|
Аудио №4: русский / AC3 / 5.1 / 48 kHz / 640 kbps / 16 bit |Супербит|
Аудио №5: русский / AC3 / 5.1 / 48 kHz / 640 kbps / 16 bit |Гланц и Королева|
Аудио №6: украинский / AC3 / 5.1 / 48 kHz / 384 kbps / 16 bit
Аудио №7: английский / AC3 / 5.1 / 48 kHz / 448 kbps / 16 bit

Оформление: Messa-fan
Рип: by Messa-fan

Код:

За дорожки Супербит, Гланц и Королева спасибо Voland с тру

Код:

x264 [info]: frame I:1192  Avg QP:17.97  size:106646
x264 [info]: frame P:52055 Avg QP:20.09  size: 58057
x264 [info]: frame B:127161 Avg QP:21.07  size: 37716
x264 [info]: consecutive B-frames:  7.2%  8.5% 13.7% 23.2% 12.7% 20.4%  4.7%  3.1%  2.1%  1.6%  0.9%  1.0%  0.7%

Код:

Общее
Уникальный идентификатор                 : 177540426950213582484070827074070515207 (0x85910ADEAD23BBF4A6DB6B0C3C440E07)
Полное имя                               : E:\Раздачи\Mission.Impossible.3.BDRip.720p.DUB.3xMVO.DVO.Ukr.Sub.by.Messa-fan.mkv
Формат                                   : Matroska
Версия формата                           : Version 4 / Version 2
Размер файла                             : 10,6 Гбайт
Продолжительность                        : 2 ч. 5 м.
Общий поток                              : 12,1 Мбит/сек
Название фильма                          : Mission: Impossible III (2006) 720p rip by Messa-fan
Дата кодирования                         : UTC 2014-05-06 16:13:16
Программа кодирования                    : mkvmerge v6.8.0 ('Theme for Great Cities') 64bit built on Mar  2 2014 21:34:26
Библиотека кодирования                   : libebml v1.3.0 + libmatroska v1.4.1

Видео
Идентификатор                            : 1
Формат                                   : AVC
Формат/Информация                        : Advanced Video Codec
Профиль формата                          : High@L4.1
Параметр CABAC формата                   : Да
Параметр ReFrames формата                : 8 кадров
Идентификатор кодека                     : V_MPEG4/ISO/AVC
Продолжительность                        : 2 ч. 5 м.
Битрейт                                  : 8452 Кбит/сек
Ширина                                   : 1280 пикселей
Высота                                   : 546 пикселей
Соотношение сторон                       : 2,35:1
Режим частоты кадров                     : Постоянный
Частота кадров                           : 23,976 кадра/сек
Цветовое пространство                    : YUV
Субдискретизация насыщенности            : 4:2:0
Битовая глубина                          : 8 бит
Тип развёртки                            : Прогрессивная
Бит/(Пиксели*Кадры)                      : 0.504
Размер потока                            : 7,19 Гбайт (68%)
Заголовок                                : Mission: Impossible III (2006) 720p rip by Messa-fan
Библиотека кодирования                   : x264 core 130 r2273 b3065e6
Настройки программы                      : cabac=1 / ref=8 / deblock=1:-3:-3 / analyse=0x3:0x113 / me=umh / subme=10 / psy=1 / psy_rd=1.01:0.03 / mixed_ref=1 / me_range=32 / chroma_me=1 / trellis=2 / 8x8dct=1 / cqm=0 / deadzone=21,11 / fast_pskip=0 / chroma_qp_offset=-5 / threads=6 / lookahead_threads=1 / sliced_threads=0 / nr=0 / decimate=1 / interlaced=0 / bluray_compat=0 / constrained_intra=0 / bframes=12 / b_pyramid=2 / b_adapt=2 / b_bias=0 / direct=3 / weightb=1 / open_gop=0 / weightp=1 / keyint=240 / keyint_min=23 / scenecut=40 / intra_refresh=0 / rc_lookahead=60 / rc=2pass / mbtree=1 / bitrate=8452 / ratetol=1.0 / qcomp=0.80 / qpmin=0 / qpmax=69 / qpstep=4 / cplxblur=20.0 / qblur=0.5 / vbv_maxrate=50000 / vbv_bufsize=62500 / nal_hrd=none / ip_ratio=1.20 / aq=1:0.80
Язык                                     : English
Default                                  : Да
Forced                                   : Нет

Аудио #1
Идентификатор                            : 2
Формат                                   : AC-3
Формат/Информация                        : Audio Coding 3
Расширение режима                        : CM (complete main)
Параметр Endianness формата              : Big
Идентификатор кодека                     : A_AC3
Продолжительность                        : 2 ч. 5 м.
Вид битрейта                             : Постоянный
Битрейт                                  : 640 Кбит/сек
Каналы                                   : 6 каналов
Расположение каналов                     : Front: L C R, Side: L R, LFE
Частота                                  : 48,0 КГц
Битовая глубина                          : 16 бит
Метод сжатия                             : С потерями
Размер потока                            : 574 Мбайт (5%)
Заголовок                                : DUB, AC3 5.1, 640 kbps
Язык                                     : Russian
Default                                  : Да
Forced                                   : Нет

Аудио #2
Идентификатор                            : 3
Формат                                   : AC-3
Формат/Информация                        : Audio Coding 3
Расширение режима                        : CM (complete main)
Параметр Endianness формата              : Big
Идентификатор кодека                     : A_AC3
Продолжительность                        : 2 ч. 5 м.
Вид битрейта                             : Постоянный
Битрейт                                  : 448 Кбит/сек
Каналы                                   : 6 каналов
Расположение каналов                     : Front: L C R, Side: L R, LFE
Частота                                  : 48,0 КГц
Битовая глубина                          : 16 бит
Метод сжатия                             : С потерями
Размер потока                            : 402 Мбайт (4%)
Заголовок                                : MVO, Pozitiv, AC3 5.1, 448 kbps
Язык                                     : Russian
Default                                  : Нет
Forced                                   : Нет

Аудио #3
Идентификатор                            : 4
Формат                                   : AC-3
Формат/Информация                        : Audio Coding 3
Расширение режима                        : CM (complete main)
Параметр Endianness формата              : Big
Идентификатор кодека                     : A_AC3
Продолжительность                        : 2 ч. 5 м.
Вид битрейта                             : Постоянный
Битрейт                                  : 448 Кбит/сек
Каналы                                   : 6 каналов
Расположение каналов                     : Front: L C R, Side: L R, LFE
Частота                                  : 48,0 КГц
Битовая глубина                          : 16 бит
Метод сжатия                             : С потерями
Размер потока                            : 402 Мбайт (4%)
Заголовок                                : MVO Kinomania, AC3 5.1, 448 kbps
Язык                                     : Russian
Default                                  : Нет
Forced                                   : Нет

Аудио #4
Идентификатор                            : 5
Формат                                   : AC-3
Формат/Информация                        : Audio Coding 3
Расширение режима                        : CM (complete main)
Параметр Endianness формата              : Big
Идентификатор кодека                     : A_AC3
Продолжительность                        : 2 ч. 5 м.
Вид битрейта                             : Постоянный
Битрейт                                  : 640 Кбит/сек
Каналы                                   : 6 каналов
Расположение каналов                     : Front: L C R, Side: L R, LFE
Частота                                  : 48,0 КГц
Битовая глубина                          : 16 бит
Метод сжатия                             : С потерями
Размер потока                            : 574 Мбайт (5%)
Заголовок                                : MVO Superbit, AC3 5.1 640 kbps
Язык                                     : Russian
Default                                  : Нет
Forced                                   : Нет

Аудио #5
Идентификатор                            : 6
Формат                                   : AC-3
Формат/Информация                        : Audio Coding 3
Расширение режима                        : CM (complete main)
Параметр Endianness формата              : Big
Идентификатор кодека                     : A_AC3
Продолжительность                        : 2 ч. 5 м.
Вид битрейта                             : Постоянный
Битрейт                                  : 640 Кбит/сек
Каналы                                   : 6 каналов
Расположение каналов                     : Front: L C R, Side: L R, LFE
Частота                                  : 48,0 КГц
Битовая глубина                          : 16 бит
Метод сжатия                             : С потерями
Размер потока                            : 574 Мбайт (5%)
Заголовок                                : DVO Glants, Koroleva AC3 640 kbps
Язык                                     : Russian
Default                                  : Нет
Forced                                   : Нет

Аудио #6
Идентификатор                            : 7
Формат                                   : AC-3
Формат/Информация                        : Audio Coding 3
Расширение режима                        : CM (complete main)
Параметр Endianness формата              : Big
Идентификатор кодека                     : A_AC3
Продолжительность                        : 2 ч. 5 м.
Вид битрейта                             : Постоянный
Битрейт                                  : 384 Кбит/сек
Каналы                                   : 6 каналов
Расположение каналов                     : Front: L C R, Side: L R, LFE
Частота                                  : 48,0 КГц
Битовая глубина                          : 16 бит
Метод сжатия                             : С потерями
Размер потока                            : 344 Мбайт (3%)
Заголовок                                : Ukr MVO, AC3 5.1, 384 kbps
Язык                                     : Ukrainian
Default                                  : Нет
Forced                                   : Нет

Аудио #7
Идентификатор                            : 8
Формат                                   : AC-3
Формат/Информация                        : Audio Coding 3
Расширение режима                        : CM (complete main)
Параметр Endianness формата              : Big
Идентификатор кодека                     : A_AC3
Продолжительность                        : 2 ч. 5 м.
Вид битрейта                             : Постоянный
Битрейт                                  : 448 Кбит/сек
Каналы                                   : 6 каналов
Расположение каналов                     : Front: L C R, Side: L R, LFE
Частота                                  : 48,0 КГц
Битовая глубина                          : 16 бит
Метод сжатия                             : С потерями
Размер потока                            : 402 Мбайт (4%)
Заголовок                                : Original AC3 5.1, 448 kbps
Язык                                     : English
Default                                  : Нет
Forced                                   : Нет

Текст #1
Идентификатор                            : 9
Формат                                   : UTF-8
Идентификатор кодека                     : S_TEXT/UTF8
Идентификатор кодека/Информация          : UTF-8 Plain Text
Язык                                     : Russian
Default                                  : Нет
Forced                                   : Нет

Текст #2
Идентификатор                            : 10
Формат                                   : UTF-8
Идентификатор кодека                     : S_TEXT/UTF8
Идентификатор кодека/Информация          : UTF-8 Plain Text
Язык                                     : Russian
Default                                  : Нет
Forced                                   : Нет

Текст #3
Идентификатор                            : 11
Формат                                   : UTF-8
Идентификатор кодека                     : S_TEXT/UTF8
Идентификатор кодека/Информация          : UTF-8 Plain Text
Язык                                     : English
Default                                  : Нет
Forced                                   : Нет

Меню
00:00:00.000                             : :Chapter 01
00:04:02.450                             : :Chapter 02
00:12:57.860                             : :Chapter 03
00:21:18.068                             : :Chapter 04
00:26:32.299                             : :Chapter 05
00:32:56.474                             : :Chapter 06
00:39:30.493                             : :Chapter 07
00:46:56.438                             : :Chapter 08
00:51:44.309                             : :Chapter 09
00:57:34.868                             : :Chapter 10
01:02:08.975                             : :Chapter 11
01:09:06.642                             : :Chapter 12
01:18:19.236                             : :Chapter 13
01:23:31.381                             : :Chapter 14
01:27:35.083                             : :Chapter 15
01:34:08.017                             : :Chapter 16
01:42:43.448                             : :Chapter 17
01:51:10.830                             : :Chapter 18
01:57:27.832                             : :Chapter 19
02:05:24.266                             : :Chapter 20



  • Павильонные съемки проходили на студии «Paramount». В предыдущие 18 лет эти павильоны использовались для съемок эпизодов сериала «Star Trek».
  • В начале мая 2004 года поступило известие о том, что Том Круз (в качестве продюсера картины) сделал запрос на получение разрешения съемок в здании немецкого парламента. Круз хотел использовать для съемок созданный из стекла и стали 40-метровый купол Рейхстага. Тем не менее, запрос Тома был отклонен главой парламента, Вольфгангом Тирсе. Спикер ответил в следующем ключе: «Здание Рейхстага ни коим образом не может использоваться для съемок фильма, и мы отказываемся даже обсуждать в дальнейшем этот вопрос. Речь идет о защите достоинства нашего парламента».
  • Том Круз сделал предложение режиссеру Джо Карнахэну возглавить съемочный процесс после просмотра картины 2002 года «Наркобарон» (кстати, Круз являлся исполнительным продюсером данного фильма). Но Джо так и не удалось найти общий язык с Томом, в результате чего он и покинул проект всего за месяц до предполагаемого начала съемок (август 2004 года). Его уход задержал съемки фильма примерно на год, пока не была найдена кандидатура нового режиссера. Воспользовавшись заминкой, Том принял решение поработать со Стивеном Спилбергом над фильмом «Война миров», выход которого изначально был запланирован на 2006 год. Таким образом, произошла своеобразная рокировка.
  • Кери-Энн Мосс была предложена одна из ключевых ролей, после того как Круз ознакомился с картиной актрисы - «Охотник на убийц» 2004 года. Однако после ухода Карнахэна и появления на режиссерском мостике Джеффри Абрамса, персонаж Кери-Энн был удален из сценария.
  • Тэнди Ньютон была предложена роль Найи Нордофф Холл, но актриса отказалась от участия в проекте, предпочтя провести время в семейном кругу. Позднее этот персонаж был видоизменен и превратился в Лею Квинт, которую и должна была сыграть Кери-Энн Мосс.
  • Первым выбором Круза на режиссерскую позицию был Дэвид Финчер, однако последний предпочел выбрать другой проект - «Короли Догтауна». Впрочем, ему он также не достался.
  • Роль главного злодея мог исполнить Кеннет Брана.
  • На роль союзника Итана Ханта был выбран Рики Жервас. Позднее эта роль отошла Саймону Пеггу.
  • В фильме могла принять участие Скарлетт Йоханссон.
  • Сцена взрыва «Ламборгини» была снята вживую, но сердце машины - ее двигатель, все же предварительно вынули.
  • Две главные женские роли в фильме достались Мишель Монахан и Кери Расселл, по курьезному совпадению родившимся в один и тот же день - 23 марта 1976 года.
  • Интерьер дома Итана Ханта воспроизводит обстановку семейного дома Джей Джей Абрамса.
  • pb.wtf



    Скачать Миссия: невыполнима 3 через торрент http://i64.fastpic.ru/big/2014/0506/31/060d00e3ea8325683468722f4c6c3c31.jpg Скачать фильм Миссия: невыполнима 3 через торрент бесплантно в хорошем качестве Описание: Суперагент Итан Хант решил расстаться с оперативной работой и заняться подготовкой курсантов. Он даже решил жениться на ... 10 10 8
    Info! Золотая раздача, скачанное не засчитывается.
    Торрент: Зарегистрирован [2014-05-06 16:40] · скачан: 4 раз
    Статус: √ проверено
    Размер: 10.6 GB
    Как cкачать? Как скачать Миссия: невыполнима 3 через торрент | qTorrent

    28-11-2019 20:33  

    Отключить всю рекламу на сайте

      Дорогой пользователь! Огромная просьба, поблагодарите релизера, оцените раздачу и оставьте свои комментарий, если Вы скачали Миссия: невыполнима 3 через торрент бесплатно! Внесите свою лепту в развитие PiratBit!
      Комментировать посты могут только пользователи прошедшие не сложную регистрацию
      Показать сообщения:    

      Миссия: невыполнима 3 через торрент
      Скачать бесплатно Миссия: невыполнима 3
      Миссия: невыполнима 3 скачать торрент
      Миссия: невыполнима 3 смотреть онлайн
      Cкачать фильм Миссия: невыполнима 3 бесплатно
      Миссия: невыполнима 3 скачать торрент в хорошем качестве
      Миссия: невыполнима 3 смотреть онлайн бесплатно в хорошем качестве


      Вы не можете начинать темы
      Вы не можете отвечать на сообщения
      Вы не можете редактировать свои сообщения
      Вы не можете удалять свои сообщения
      Вы не можете голосовать в опросах
      Вы не можете прикреплять файлы к сообщениям
      Вы можете скачивать файлы