новый адрес
Мега распродажа FORZA HORIZON 4 ULTIMATE+ВСЕ DLC+ОНЛАЙН всего за 499р. 349 руб. (супер цена). Внимание количество ограничено!!!

iTunes

1+1

iTunes

мы

iTunes

1

iTunes

Чернобыль

iTunes

Ральф против интернета

Лицензия

ПШазам

Лицензия

Игра престолов

Лицензия

30
pack

ВАЖНО

!!Акция!!

Alien_RageХит недели

RePack

Resident Evil 21

ИГРА 18+

pack

RePack

Metro:Exodus

!!Акция!!

Alien_Rage

RePack

fifa19

RePack

Assassins Creed: Odyssey

RePack

NEED FOR SPEED™ PAYBACK

3 сезон

9 сезон

Бесстыжие 9 сезон

Все сериалы

все сериалы на PB.wtf

RePack

FAR CRY 5
Ребята, катастрофически не хватает 1900р. для оплаты серверов за Октябрь (всвязи с блокировками трафик упал в 3 раза), 1-2р., выручайте.
  

Охота на единорога (Владимир Лаптев) [1989 г., Военный, Драма, DVDRip] pb.wtf

Охота на единорога через торрент pb.wtf

Размер: 1.37 GB | Добавлен: 5 лет 6 мес. назад | Торрент скачан:25 раз
Скачать  

06-05-2014 18:07 Охота на единорога Скачать торрент  

Охота на единорога
Год выпуска: 1989
Страна: СССР Свердловская Киностудия
Жанр: Военный, Драма
Продолжительность: 01:14:24

Режиссер: Владимир Лаптев
Сценарий: Анатолий Галиев, Владимир Туболев


В ролях: Сергей Быстрицкий, Виталий Зикора, Виктор Соловьев, Владимир Завьялов, Юрий Лазарев, Виталий Яковлев, Гедиминас Гирдвайнис, В.Кадочников, Альгис Матуленис ....
Описание: Начало войны. Выпускник летного училища Тесленко летит ведомым у командира эскадрильи Грабаря. Их сбивают, и Тесленко оказывается в лагере при немецком аэродроме, где советские летчики с ограниченным запасом горючего служат живыми мишенями для немецких курсантов летной школы. Однако Тесленко удалось совершить побег. Добравшись до расположения советских войск, он был арестован и осужден по 58-й статье…
Качество: DVDRip
Формат: AVI
Видео кодек: DivX
Аудио кодек: AC3
Видео: DivX 5 704x528, 25.00fps, 2 425 Kbps
Аудио: Dolby AC3, 48000Hz, stereo, 192kbps
Релиз от: viktor561





General
Complete name : I:\01 01 01\ohota_na_edinoroga.avi
Format : AVI
Format/Info : Audio Video Interleave
File size : 1.37 GiB
Duration : 1h 14mn
Overall bit rate : 2 627 Kbps
Writing application : VirtualDubMod 1.5.10.2 (build 2540/release)
Writing library : VirtualDubMod build 2540/release

Video
ID : 0
Format : MPEG-4 Visual
Format settings, BVOP : 1
Format settings, QPel : No
Format settings, GMC : No warppoints
Format settings, Matrix : Default (H.263)
Muxing mode : Packed bitstream
Codec ID : DX50
Codec ID/Hint : DivX 5
Duration : 1h 14mn
Bit rate : 2 425 Kbps
Width : 704 pixels
Height : 528 pixels
Display aspect ratio : 4:3
Frame rate : 25.000 fps
Color space : YUV
Chroma subsampling : 4:2:0
Bit depth : 8 bits
Scan type : Progressive
Compression mode : Lossy
Bits/(Pixel*Frame) : 0.261
Stream size : 1.26 GiB (92%)
Writing library : DivX 6.8.5 (UTC 2009-08-20)

Audio
ID : 1
Format : AC-3
Format/Info : Audio Coding 3
Mode extension : CM (complete main)
Codec ID : 2000
Duration : 1h 14mn
Bit rate mode : Constant
Bit rate : 192 Kbps
Channel(s) : 2 channels
Channel positions : Front: L R
Sampling rate : 48.0 KHz
Bit depth : 16 bits
Compression mode : Lossy
Stream size : 102 MiB (7%)
Alignment : Split accross interleaves
Interleave, duration : 40 ms (1.00 video frame)
Interleave, preload duration : 500 ms

pb.wtf



Скачать Охота на единорога через торрент http://pic.kartinco.top/images/6/y5dt8.jpg Скачать фильм Охота на единорога через торрент бесплантно в хорошем качестве Описание: Начало войны. Выпускник летного училища Тесленко летит ведомым у командира эскадрильи Грабаря. Их сбивают, и Тесленко оказывается ... 10 10 6
Info! Золотая раздача, скачанное не засчитывается.
Торрент: Зарегистрирован [2014-05-06 18:07] · скачан: 25 раз
Статус: √ проверено
Размер: 1.37 GB
Как cкачать? Как скачать Охота на единорога через торрент | qTorrent

% Раздел Тема Автор DL S | L
Наши сериалы [ 4.14 GB ] Мастер охоты на единорога / Серии: 1-4 из 4 [2019 WEB-DL 720p] bober100 Скачать
1 | 0
Наши сериалы [ 2.26 GB ] Мастер охоты на единорога / Серии: 1-4 из 4 [2019 WEB-DLRip] bober100 Скачать
1 | 0
Наши сериалы [ 6.67 GB ] Мастер охоты на единорога / Серии: 1-4 из 4 [2019 WEB-DL 1080p] bober100 Скачать
1 | 0
Наши сериалы [ 2.34 GB ] Мастер охоты на единорога / Серии: 1-4 из 4 [2019 SATRip] bober100 Скачать
1 | 0
Наши сериалы [ 2.25 GB ] Мастер охоты на единорога / Серии: 1-4 из 4 [2019 WEB-DLRip-AVC] bober100 Скачать
1 | 0
Наши сериалы [ 2.21 GB ] Мастер охоты на единорога / Серии: 1-4 из 4 [2019 экранизация SATRip-AVC] aleksan55 Скачать
1 | 0


>> Регистрируемся здесь <<






Отзывы и комментарии о схеме читаем и пишем здесь: ---> Отзывы и комментарии о схеме

Новые благодарочки в телеграм довольных пользователей:
скриншот   скриншот   скриншот   скриншот   скриншот
    Дорогой пользователь! Огромная просьба, поблагодарите релизера, оцените раздачу и оставьте свои комментарий, если Вы скачали Охота на единорога через торрент бесплатно! Внесите свою лепту в развитие PiratBit!
    Комментировать посты могут только пользователи прошедшие не сложную регистрацию
    Показать сообщения:    

    Охота на единорога через торрент
    Скачать бесплатно Охота на единорога
    Охота на единорога скачать торрент
    Охота на единорога смотреть онлайн
    Cкачать фильм Охота на единорога бесплатно
    Охота на единорога скачать торрент в хорошем качестве
    Охота на единорога смотреть онлайн бесплатно в хорошем качестве


    Вы не можете начинать темы
    Вы не можете отвечать на сообщения
    Вы не можете редактировать свои сообщения
    Вы не можете удалять свои сообщения
    Вы не можете голосовать в опросах
    Вы не можете прикреплять файлы к сообщениям
    Вы можете скачивать файлы