Ссылка на приватное зеркало всего за 1$. Внимание количество ограничено!!!

OK

1+1

iTunes

мы

OK

1

WEB-DLRip

Джокер

Пифагор

Ведьмак / The Witcher сериал

Лицензия

ПШазам

ОК

Оно 2

iTunes

30
pack

Вам бонус

ВАЖНО

!!Акция!!

Alien_RageХит недели

RePack

Resident Evil 21

ИГРА 18+

pack

RePack

jed

!!Акция!!

Alien_Rage

RePack

fifa19

RePack

Assassins Creed: Odyssey

RePack

NEED FOR SPEED™ PAYBACK

4 сезон

9 сезон

Бесстыжие 9 сезон

Все сериалы

все сериалы на PB.wtf

RePack

FAR CRY 5
  

Неслужебное задание.Трилогия. (Виталий Воробьев) [2004-2006 г., боевик, военный, DVDRip] pb.wtf

Неслужебное задание.Трилогия. через торрент pb.wtf

Размер: 4.28 GB | Добавлен: 5 лет 8 мес. назад | Торрент скачан:124 раза
Скачать  

07-05-2014 07:10 Неслужебное задание.Трилогия. Скачать торрент  


Неслужебное задание
Год выпуска: 2004
Страна: Россия Cinebridge
Жанр: боевик, военный
Продолжительность: 01:33:06

Режиссер: Виталий Воробьев
Продюссер: Сергей Кучков, Елена Вашуркина
Сценарий: Вера Федорова, Сергей Сергеев


В ролях: Павел Майков, Михаил Присмотров-Белов, Василий Слюсаренко, Сергей Потапов, Александр Сериков, Игорь Марычев, Тимур Савин, Михаил Васьков, Алексей Ильин, Николай Карпенко, Антон Аносов, Сергей Беседин, Александр Бобков, Александр Борисенко, Сергей Греков, Алексей Игнатьев, Григорий Калинин, Антонина Колиниченко, Роман Квашнин, Ирина Пантелеева
Описание: Войны заканчиваются не тогда, когда под тем или иным документом поставлена маршальская подпись, а когда прекращают стрелять. Действие фильма происходит сразу после войны на территории Чехословакии. Германия капитулировала, но в тылах Советской Армии еще продолжают сопротивляться разрозненные фашистские отряды. Командиру разведроты, старшему лейтенанту Воронкову приказано обезвредить одну из таких немецких групп. Собственных сил не хватает, поэтому Воронков обращается к соседям — казачьему соединению. Задание поначалу кажется несложным. Но рядовая погоня превращается в смертельную схватку…
Качество: DVDRip
Формат: AVI
Видео кодек: XviD
Аудио кодек: AC3
Видео: Xvid 704x416, 25.00fps, 2 044 Kbps
Аудио: Dolby AC3, 48000Hz, stereo, 192kbps
Релиз от: allecs2010





General
Complete name : I:\01 10 2013\Неслужебное задание.2004.DVDRip.XviD.AC3.avi
Format : AVI
Format/Info : Audio Video Interleave
File size : 1.46 GiB
Duration : 1h 33mn
Overall bit rate : 2 246 Kbps
Writing application : VirtualDubMod 1.5.10.2 (build 2540/release)
Writing library : VirtualDubMod build 2540/release

Video
ID : 0
Format : MPEG-4 Visual
Format profile : Advanced Simple@L5
Format settings, BVOP : 1
Format settings, QPel : No
Format settings, GMC : No warppoints
Format settings, Matrix : Custom
Codec ID : XVID
Codec ID/Hint : XviD
Duration : 1h 33mn
Bit rate : 2 044 Kbps
Width : 704 pixels
Height : 416 pixels
Display aspect ratio : 1.692
Frame rate : 25.000 fps
Color space : YUV
Chroma subsampling : 4:2:0
Bit depth : 8 bits
Scan type : Progressive
Compression mode : Lossy
Bits/(Pixel*Frame) : 0.279
Stream size : 1.33 GiB (91%)
Writing library : XviD 65

Audio
ID : 1
Format : AC-3
Format/Info : Audio Coding 3
Format profile : Dolby Digital
Mode extension : CM (complete main)
Codec ID : 2000
Duration : 1h 33mn
Bit rate mode : Constant
Bit rate : 192 Kbps
Channel(s) : 2 channels
Channel positions : Front: L R
Sampling rate : 48.0 KHz
Bit depth : 16 bits
Compression mode : Lossy
Stream size : 128 MiB (9%)
Alignment : Split accross interleaves
Interleave, duration : 40 ms (1.00 video frame)
Interleave, preload duration : 500 ms


Неслужебное задание 2: Взрыв на рассвете
Год выпуска: 2005
Страна: Россия Акцент-продакшн
Жанр: боевик, военный
Продолжительность: 01:26:37

Режиссер: Виталий Воробьев, Иван Криворучко
Продюссер: Сергей Кучков
Сценарий: Иван Криворучко, Вера Федорова, Сергей Сергеев

В ролях: Павел Майков, Юрий Мосейчук, Евгений Пронин, Дмитрий Клоков, Кирилл Плетнев, Лариса Наумкина, Александр Кольцов, Егор Рыбаков, Максим Дрозд, Юрий Гумиров
Описание: События разворачиваются в наши дни. Во время учений десантники натыкаются на систему мин времен Великой Отечественной. Тогда немцы планировали взорвать находившуюся рядом дамбу. Помочь разминировать ее может только старик Серба, живущий в соседнем селе... И тут всплывает история героя «Неслужебного задания», в 1943 году воевавшего в этих местах.
Качество: DVDRip
Формат: AVI
Видео кодек: XviD
Аудио кодек: AC3
Видео: Xvid 672x400, 25.00fps, 2 179 Kbps
Аудио: Dolby AC3, 48000Hz, 6ch, 224kbps
Релиз от: Chestnij





General
Complete name : I:\22\Nesluzhebnoe.Zadanie.2.2004.XviD.DVDRip.avi
Format : AVI
Format/Info : Audio Video Interleave
File size : 1.46 GiB
Duration : 1h 26mn
Overall bit rate : 2 410 Kbps
Writing application : VirtualDubMod 1.5.4.1 (build 2178/release)
Writing library : VirtualDubMod build 2178/release

Video
ID : 0
Format : MPEG-4 Visual
Format profile : Advanced Simple@L5
Format settings, BVOP : 1
Format settings, QPel : No
Format settings, GMC : No warppoints
Format settings, Matrix : Custom
Codec ID : XVID
Codec ID/Hint : XviD
Duration : 1h 26mn
Bit rate : 2 179 Kbps
Width : 672 pixels
Height : 400 pixels
Display aspect ratio : 1.680
Frame rate : 25.000 fps
Color space : YUV
Chroma subsampling : 4:2:0
Bit depth : 8 bits
Scan type : Progressive
Compression mode : Lossy
Bits/(Pixel*Frame) : 0.324
Stream size : 1.32 GiB (90%)
Writing library : XviD 1.2.0.dev47 (UTC 2006-11-01)

Audio
ID : 1
Format : AC-3
Format/Info : Audio Coding 3
Mode extension : CM (complete main)
Codec ID : 2000
Duration : 1h 26mn
Bit rate mode : Constant
Bit rate : 224 Kbps
Channel(s) : 6 channels
Channel positions : Front: L C R, Side: L R, LFE
Sampling rate : 48.0 KHz
Bit depth : 16 bits
Compression mode : Lossy
Stream size : 139 MiB (9%)
Alignment : Split accross interleaves
Interleave, duration : 96 ms (2.40 video frames)
Interleave, preload duration : 96 ms


Неслужебное задание-3: Секретное оружие
Год выпуска: 2006
Страна: Россия Ost Video Weltform
Жанр: боевик, военный
Продолжительность: 2 х ~ 00:51:22

Режиссер: Виталий Воробьев, Иван Криворучко
Продюссер: Сергей Кучков
Сценарий: Вера Федорова

В ролях: Кирилл Плетнёв, Михаил Присмотров, Ян Цапник, Иван Моховиков, Вадим Андреев
Описание: На войне бывает всё. Ломаются судьбы, обнажаются самые потаённые человеческие качества. Рядовое на первый взгляд поручение может превратиться в крайне рискованную операцию с непредсказуемыми последствиями. Разведчики взвода лейтенанта Бесфамильного (Противостояние) получают задание - проверить информацию о секретном бункере фашистов. Они успешно переходят линию фронта, но дальше всё идёт не так, как было запланированно.....
Качество: DVDRip
Формат: AVI
Видео кодек: XviD
Аудио кодек: MP3
Видео: Xvid 640x352, 25.00fps, 1 642 Kbps
Аудио: MPEG Audio Layer 3, 48000Hz, stereo, 192kbps
Релиз от: GLAFIRA





General
Complete name : I:\22\Nesluzebnoe zadanie3\nesluzebnoe zadanie-3. Sekretnoe oruzie-XviD-by-fontan-part1.avi
Format : AVI
Format/Info : Audio Video Interleave
File size : 700 MiB
Duration : 53mn 3s
Overall bit rate : 1 844 Kbps
Writing application : VirtualDubMod 1.5.10.2 (build 2540/release)
Writing library : VirtualDubMod build 2540/release

Video
ID : 0
Format : MPEG-4 Visual
Format profile : Advanced Simple@L5
Format settings, BVOP : 2
Format settings, QPel : No
Format settings, GMC : No warppoints
Format settings, Matrix : Default (H.263)
Muxing mode : Packed bitstream
Codec ID : XVID
Codec ID/Hint : XviD
Duration : 53mn 3s
Bit rate : 1 642 Kbps
Width : 640 pixels
Height : 352 pixels
Display aspect ratio : 16:9
Frame rate : 25.000 fps
Color space : YUV
Chroma subsampling : 4:2:0
Bit depth : 8 bits
Scan type : Progressive
Compression mode : Lossy
Bits/(Pixel*Frame) : 0.292
Stream size : 623 MiB (89%)
Writing library : XviD 1.0.3 (UTC 2004-12-20)

Audio
ID : 1
Format : MPEG Audio
Format version : Version 1
Format profile : Layer 3
Mode : Joint stereo
Mode extension : MS Stereo
Codec ID : 55
Codec ID/Hint : MP3
Duration : 53mn 3s
Bit rate mode : Constant
Bit rate : 192 Kbps
Channel(s) : 2 channels
Sampling rate : 48.0 KHz
Compression mode : Lossy
Stream size : 72.9 MiB (10%)
Alignment : Aligned on interleaves
Interleave, duration : 40 ms (1.00 video frame)
Interleave, preload duration : 504 ms

pb.wtf



Скачать Неслужебное задание.Трилогия. через торрент http://pic.kartinco.top/images/6/oiyki.jpg Скачать фильм Неслужебное задание.Трилогия. через торрент бесплантно в хорошем качестве Описание: Войны заканчиваются не тогда, когда под тем или иным документом поставлена маршальская подпись, а когда прекращают стрелять. ... 10 10 12
Info! Золотая раздача, скачанное не засчитывается.
Торрент: Зарегистрирован [2014-05-07 07:10] · скачан: 124 раз
Статус: √ проверено
Размер: 4.28 GB
Как cкачать? Как скачать Неслужебное задание.Трилогия. через торрент | qTorrent

28-11-2019 20:33  

Отключить всю рекламу на сайте

19-12-2018 22:20 Неслужебное задание.Трилогия. Скачать торрент  

Хорошие фильмы.За такие фильмы не стыдно.А так хочу сказать,что очень нравиться этот Торрент-трекер-хорошее качество,нормально скачивается все,да и найти все можно и просто. Спасибо Вам всем !!!!!pb.wtf



    Дорогой пользователь! Огромная просьба, поблагодарите релизера, оцените раздачу и оставьте свои комментарий, если Вы скачали Неслужебное задание.Трилогия. через торрент бесплатно! Внесите свою лепту в развитие PiratBit!
    Комментировать посты могут только пользователи прошедшие не сложную регистрацию
    Показать сообщения:    

    Неслужебное задание.Трилогия. через торрент
    Скачать бесплатно Неслужебное задание.Трилогия.
    Неслужебное задание.Трилогия. скачать торрент
    Неслужебное задание.Трилогия. смотреть онлайн
    Cкачать фильм Неслужебное задание.Трилогия. бесплатно
    Неслужебное задание.Трилогия. скачать торрент в хорошем качестве
    Неслужебное задание.Трилогия. смотреть онлайн бесплатно в хорошем качестве


    Вы не можете начинать темы
    Вы не можете отвечать на сообщения
    Вы не можете редактировать свои сообщения
    Вы не можете удалять свои сообщения
    Вы не можете голосовать в опросах
    Вы не можете прикреплять файлы к сообщениям
    Вы можете скачивать файлы