2 сезон

iTunes

1 сезон

1

iTunes

iTunes

iTunes

1 сезон

RePack

30

ИГРА 18+

pack

ВАЖНО

!!Акция!!

Alien_RageХит недели

RePack

MK11
pack

Забери бонус

RePack

jed

!!Акция!!

Alien_Rage

RePack

fifa19

RePack

Assassins Creed: Odyssey

RePack

NEED FOR SPEED™ PAYBACK

4 сезон

9 сезон

Бесстыжие 9 сезон

Все сериалы

все сериалы на PB.wtf

RePack

FAR CRY 5
  

Потрошители / Repo Men (Мигель Сапочник) [2010 г., триллер, драма, боевик, BDRip 1080p, Профессиональный многоголосый] pb.wtf

Потрошители через торрент pb.wtf

Размер: 10.87 GB | Добавлен: 6 лет 5 мес. назад | Торрент скачан:76 раз
Скачать  

07-05-2014 10:28 Потрошители Скачать торрент  

Потрошители / Repo Men
Год выпуска: 2010
Страна: США
Жанр: триллер, драма, боевик
Продолжительность: 01:59:37
Перевод: Профессиональный многоголосый
Субтитры: Russian, Russian, Russian, Russian, Russian, Russian, Ukrainian, English, Czech, French, Croatian, Hungarian, Romanian, Spanish, Swedish
Режиссер: Мигель Сапочник
В ролях: Джуд Лоу, Форест Уитакер, Алиси Брага, Лив Шрайбер, Кэрис Ван Хаутен, Чандлер Кентербери, Джо Пинг, Лиза Лапира, Тиффани Эспенсен, Ивет Николь Браун

Описание: В недалеком будущем искусственные органы будут доступны всем и даже в кредит. Если же человек не в состоянии оплатить долг, то принимаются крайне жесткие меры. Однажды к нему в дом может вломиться Потрошитель, который способен подавить любое сопротивление и должен изъять из него искусственный орган, собственность компании Union. Реми как раз такой - и охотник, и жертва - он Потрошитель, и он же не может оплатить пересадку сердца, а посему вынужден пуститься в бега…

Качество: BDRip 1080p
Формат: MKV
Видео кодек: AVC
Аудио кодек: AC3
Видео: AVC, 1920x816 (2.35:1), 23.976 fps, 11.0 Mbps (0.293 bit/pixel)
Аудио#1: AC-3, 48.0 KHz, 6 ch, 384 Kbps, CBR (Russian)
Аудио#2: DTS, 48.0 KHz, 6 ch, 1 510 Kbps, CBR (English)
Аудио#3: AC-3, 48.0 KHz, 1 ch, 56.0 Kbps, CBR (English)
Аудио#4: AC-3, 48.0 KHz, 1 ch, 56.0 Kbps, CBR (English)

General
Unique ID : 240901397809751379320334476856264543057 (0xB53BEBEBEC5EBED3B76CDC7B461CCB51)
Complete name : C:\Users\xxx\Downloads\Repo.Men.UNRATED.2010.1080p.BluRay.AC3.DTS.RUS.ENG.x264-EbP.mkv
Format : Matroska
Format version : Version 2
File size : 10.9 GiB
Duration : 1h 59mn
Overall bit rate : 13.0 Mbps
Movie name : zack
Encoded date : UTC 2010-08-11 20:13:23
Writing application : mkvmerge v4.2.0 ('No Talking') сборка от Aug 1 2010 22:50:30
Writing library : libebml v1.0.0 + libmatroska v1.0.0

Video
ID : 1
Format : AVC
Format/Info : Advanced Video Codec
Format profile : High@L4.1
Format settings, CABAC : Yes
Format settings, ReFrames : 5 frames
Muxing mode : Header stripping
Codec ID : V_MPEG4/ISO/AVC
Duration : 1h 59mn
Bit rate : 11.0 Mbps
Width : 1 920 pixels
Height : 816 pixels
Display aspect ratio : 2.35:1
Frame rate mode : Constant
Frame rate : 23.976 fps
Color space : YUV
Chroma subsampling : 4:2:0
Bit depth : 8 bits
Scan type : Progressive
Bits/(Pixel*Frame) : 0.293
Stream size : 8.97 GiB (83%)
Title : Repo.Men.2010.1080p.BluRay.x264-EbP
Writing library : x264 core 104 r1683 62997d6
Encoding settings : cabac=1 / ref=5 / deblock=1:-3:-3 / analyse=0x3:0x113 / me=tesa / subme=10 / psy=1 / psy_rd=0.90:0.00 / mixed_ref=1 / me_range=16 / chroma_me=1 / trellis=2 / 8x8dct=1 / cqm=0 / deadzone=21,11 / fast_pskip=0 / chroma_qp_offset=-2 / threads=12 / sliced_threads=0 / nr=0 / decimate=0 / interlaced=0 / constrained_intra=0 / bframes=6 / b_pyramid=2 / b_adapt=2 / b_bias=0 / direct=3 / weightb=1 / open_gop=1 / weightp=2 / keyint=250 / keyint_min=23 / scenecut=40 / intra_refresh=0 / rc=2pass / mbtree=0 / bitrate=11000 / ratetol=1.0 / qcomp=0.60 / qpmin=10 / qpmax=51 / qpstep=4 / cplxblur=20.0 / qblur=0.5 / ip_ratio=1.40 / pb_ratio=1.30 / aq=1:0.70
Language : English
Default : Yes
Forced : No

Audio #1
ID : 2
Format : AC-3
Format/Info : Audio Coding 3
Mode extension : CM (complete main)
Format settings, Endianness : Big
Muxing mode : Header stripping
Codec ID : A_AC3
Duration : 1h 59mn
Bit rate mode : Constant
Bit rate : 384 Kbps
Channel(s) : 6 channels
Channel positions : Front: L C R, Side: L R, LFE
Sampling rate : 48.0 KHz
Bit depth : 16 bits
Compression mode : Lossy
Stream size : 329 MiB (3%)
Title : AC3 5.1ch 384kbps [Дубляж]
Language : Russian
Default : Yes
Forced : No

Audio #2
ID : 3
Format : DTS
Format/Info : Digital Theater Systems
Mode : 16
Format settings, Endianness : Big
Muxing mode : Header stripping
Codec ID : A_DTS
Duration : 1h 59mn
Bit rate mode : Constant
Bit rate : 1 509 Kbps
Channel(s) : 6 channels
Channel positions : Front: L C R, Side: L R, LFE
Sampling rate : 48.0 KHz
Bit depth : 24 bits
Compression mode : Lossy
Stream size : 1.26 GiB (12%)
Title : DTS 5.1ch 1536kbps
Language : English
Default : No
Forced : No

Audio #3
ID : 4
Format : AC-3
Format/Info : Audio Coding 3
Mode extension : CM (complete main)
Format settings, Endianness : Big
Muxing mode : Header stripping
Codec ID : A_AC3
Duration : 1h 59mn
Bit rate mode : Constant
Bit rate : 56.0 Kbps
Channel(s) : 1 channel
Channel positions : Front: C
Sampling rate : 48.0 KHz
Bit depth : 16 bits
Compression mode : Lossy
Stream size : 47.9 MiB (0%)
Title : Directors commentary
Language : English
Default : No
Forced : No

Audio #4
ID : 5
Format : AC-3
Format/Info : Audio Coding 3
Mode extension : CM (complete main)
Format settings, Endianness : Big
Muxing mode : Header stripping
Codec ID : A_AC3
Duration : 1h 59mn
Bit rate mode : Constant
Bit rate : 56.0 Kbps
Channel(s) : 1 channel
Channel positions : Front: C
Sampling rate : 48.0 KHz
Bit depth : 16 bits
Compression mode : Lossy
Stream size : 47.9 MiB (0%)
Title : Commentary track
Language : English
Default : No
Forced : No

Text #1
ID : 6
Format : UTF-8
Codec ID : S_TEXT/UTF8
Codec ID/Info : UTF-8 Plain Text
Title : Forced
Language : Russian
Default : Yes
Forced : No

Text #2
ID : 7
Format : UTF-8
Codec ID : S_TEXT/UTF8
Codec ID/Info : UTF-8 Plain Text
Title : Voronine
Language : Russian
Default : No
Forced : No

Text #3
ID : 8
Format : UTF-8
Codec ID : S_TEXT/UTF8
Codec ID/Info : UTF-8 Plain Text
Title : Voronine. SDH
Language : Russian
Default : No
Forced : No

Text #4
ID : 9
Format : UTF-8
Codec ID : S_TEXT/UTF8
Codec ID/Info : UTF-8 Plain Text
Title : Voronine. Coloured
Language : Russian
Default : No
Forced : No

Text #5
ID : 10
Format : UTF-8
Codec ID : S_TEXT/UTF8
Codec ID/Info : UTF-8 Plain Text
Title : Voronine. Coloured. SDH
Language : Russian
Default : No
Forced : No

Text #6
ID : 11
Format : UTF-8
Codec ID : S_TEXT/UTF8
Codec ID/Info : UTF-8 Plain Text
Title : stfu
Language : Russian
Default : No
Forced : No

Text #7
ID : 12
Format : UTF-8
Codec ID : S_TEXT/UTF8
Codec ID/Info : UTF-8 Plain Text
Title : R5
Language : Ukrainian
Default : No
Forced : No

Text #8
ID : 13
Format : UTF-8
Codec ID : S_TEXT/UTF8
Codec ID/Info : UTF-8 Plain Text
Title : SDH
Language : English
Default : No
Forced : No

Text #9
ID : 14
Format : UTF-8
Codec ID : S_TEXT/UTF8
Codec ID/Info : UTF-8 Plain Text
Language : Czech
Default : No
Forced : No

Text #10
ID : 15
Format : UTF-8
Codec ID : S_TEXT/UTF8
Codec ID/Info : UTF-8 Plain Text
Language : French
Default : No
Forced : No

Text #11
ID : 16
Format : UTF-8
Codec ID : S_TEXT/UTF8
Codec ID/Info : UTF-8 Plain Text
Language : Croatian
Default : No
Forced : No

Text #12
ID : 17
Format : UTF-8
Codec ID : S_TEXT/UTF8
Codec ID/Info : UTF-8 Plain Text
Language : Hungarian
Default : No
Forced : No

Text #13
ID : 18
Format : UTF-8
Codec ID : S_TEXT/UTF8
Codec ID/Info : UTF-8 Plain Text
Language : Romanian
Default : No
Forced : No

Text #14
ID : 19
Format : UTF-8
Codec ID : S_TEXT/UTF8
Codec ID/Info : UTF-8 Plain Text
Language : Spanish
Default : No
Forced : No

Text #15
ID : 20
Format : UTF-8
Codec ID : S_TEXT/UTF8
Codec ID/Info : UTF-8 Plain Text
Language : Swedish
Default : No
Forced : No

Menu
00:00:00.000 : en:1.No Need For Violence
00:05:25.659 : en:2.The Union
00:11:04.080 : en:3.A Job's a Job
00:17:51.654 : en:4.Just A Kidney
00:24:19.541 : en:5.Enforcing The Rules
00:27:57.259 : en:6.Knockout #3
00:32:25.068 : en:7.You're A Very Lucky Man
00:41:45.503 : en:8.Past Due
00:48:22.858 : en:9.Two Pieces Of The Same Puzzle
00:52:38.906 : en:10.Robbing Banks
00:56:50.157 : en:11.Artificial Everything
01:02:16.691 : en:12.A Cautionary Tale
01:06:25.481 : en:13.Jumping Credit
01:11:15.313 : en:14.Security Jam
01:21:25.839 : en:15.Can't Go Back
01:27:19.025 : en:16.No Escape
01:34:07.809 : en:17.Wipe The System
01:40:56.050 : en:18.Scanning Out
01:49:25.016 : en:19.Sweet Dreams
01:53:19.459 : en:20.End Titles

pb.wtf



Скачать Потрошители через торрент http://i64.fastpic.ru/big/2014/0507/ed/313cc17617deb7e961d1dade6b4aa0ed.png Скачать фильм Потрошители через торрент бесплантно в хорошем качестве Описание: В недалеком будущем искусственные органы будут доступны всем и даже в кредит. Если же человек не в состоянии оплатить долг, то ... 9.5 10 8
Торрент: Зарегистрирован [2014-05-07 10:28] · скачан: 76 раз
Статус: √ проверено
Размер: 10.87 GB
Как cкачать? Как скачать Потрошители через торрент | qTorrent

% Раздел Тема Автор DL S | L
Фильмы с авторской озвучкой [ 2.18 GB ] Потрошители / Repo Men [2010 BDRip] [Unrated] [AVO] killermax2013 Скачать
3 | 0
Фильмы [HD 720p, 1080p] (Хороший звук DUB, MVO) [ 9.88 GB ] Потрошители / Repo Men [2010 BDRip 1080p] [Unrated] DUB + 3xAVO - KORSAR kisa1980 Скачать
2 | 0
Фильмы (HD 720p, 1080p) (48-60 fps) [ 3.48 GB ] Потрошители / Repo Men [2010 BDRip 720p / 60 FPS ] 60fps от R.G. HD-Films slaventi-69 Скачать
2 | 0
Фильмы [HD 720p, 1080p] (Хороший звук DUB, MVO) [ 11.09 GB ] Потрошители / Repo Men [2010 BDRip 1080p DUB ] от R.G. HD-Films Seedtank Скачать
1 | 0
Фильмы 2010 [ 2.05 GB ] Потрошители / Repo Men [UNRATED] [2010 BDRip][ лицензия ] Kristian Larsson Скачать
1 | 0
Фильмы (DVD фильмы) [ 7.64 GB ] Потрошители / Repo Men [2010 DVD9 лицензия] nickson-82 Скачать
1 | 0
Фильмы 2010 [ 2.17 GB ] Потрошители / Repo Men [2010 HDRip-AVC] [UNRATED] -=BIGBOSS=- Скачать
1 | 0

28-11-2019 20:33  

Отключить всю рекламу на сайте

02-06-2014 09:16 Потрошители Скачать торрент  

дико извиняюсь, но зачем 6 русских субтитров?pb.wtf



    Дорогой пользователь! Огромная просьба, поблагодарите релизера, оцените раздачу и оставьте свои комментарий, если Вы скачали Потрошители через торрент бесплатно! Внесите свою лепту в развитие PiratBit!
    Комментировать посты могут только пользователи прошедшие не сложную регистрацию
    Показать сообщения:    

    Потрошители через торрент
    Скачать бесплатно Потрошители
    Потрошители скачать торрент
    Потрошители смотреть онлайн
    Cкачать фильм Потрошители бесплатно
    Потрошители скачать торрент в хорошем качестве
    Потрошители смотреть онлайн бесплатно в хорошем качестве


    Вы не можете начинать темы
    Вы не можете отвечать на сообщения
    Вы не можете редактировать свои сообщения
    Вы не можете удалять свои сообщения
    Вы не можете голосовать в опросах
    Вы не можете прикреплять файлы к сообщениям
    Вы можете скачивать файлы