Ссылка на приватное зеркало всего за 1$. Внимание количество ограничено!!!

iTunes

iTunes

iTunes

1

iTunes

iTunes

iTunes

WEBRip

iTunes

30
pack

$ от Little Big

ВАЖНО

!!Акция!!

Alien_RageХит недели

RePack

Resident Evil 21

ИГРА 18+

pack

RePack

jed

!!Акция!!

Alien_Rage

RePack

fifa19

RePack

Assassins Creed: Odyssey

RePack

NEED FOR SPEED™ PAYBACK

4 сезон

9 сезон

Бесстыжие 9 сезон

Все сериалы

все сериалы на PB.wtf

RePack

FAR CRY 5
  

Ангелы смерти (Юрий Озеров) [1993 г., Военный, драма, ВОВ, DVDRip] pb.wtf

Ангелы смерти через торрент pb.wtf

Размер: 1.37 GB | Добавлен: 6 лет 3 мес. назад | Торрент скачан:189 раз
Скачать  

07-05-2014 12:16 Ангелы смерти Скачать торрент  

Ангелы смерти
Год выпуска: 1993
Страна: Россия , Франция Ганем-Фильм, Киноконцерт "Мосфильм"
Жанр: Военный, драма, ВОВ
Продолжительность: 01:32:21

Режиссер: Юрий Озеров
Продюссер: Абу Ганем
Сценарий: Юрий Озеров


В ролях: Роман Греков, Александр Кудинов, Регимантас Адомайтис, Арчил Гомиашвили, Николай Крючков, Борис Невзоров, Сергей Никоненко, Фёдор Бондарчук, Екатерина Стриженова, Олег Урюмцев, Любомирас Лауцявичюс, Екатерина Урманчеева, Пауэрс Бут, Роналд Лэйси, Валерий Цветков, Ахим Петров, Юрий Лазарев
Описание: Фильм посвящен 50-летию Великой Сталинградской битвы (1942-1943). История любви молодого сибирского парня-снайпера и девушки, волей случая ставшей жертвой знаменитого немецкого стрелка. Считается, что по мотивам этого фильма был снят фильм "Враг у ворот" (США)...
Качество: DVDRip
Формат: AVI
Видео кодек: DivX
Аудио кодек: AC3
Видео: DivX 5 720x544, 25.00fps, 1 921 Kbps
Аудио: Dolby AC3, 48000Hz, stereo, 192kbps
Релиз от: GoldFlower





General
Complete name : I:\22\Angely_smerti_[torrents.ru].avi
Format : AVI
Format/Info : Audio Video Interleave
File size : 1.37 GiB
Duration : 1h 32mn
Overall bit rate : 2 120 Kbps
Writing application : VirtualDubMod 1.5.4.1 (build 2178/release)
Writing library : VirtualDubMod build 2178/release

Video
ID : 0
Format : MPEG-4 Visual
Format settings, BVOP : 1
Format settings, QPel : No
Format settings, GMC : No warppoints
Format settings, Matrix : Default (H.263)
Muxing mode : Packed bitstream
Codec ID : DX50
Codec ID/Hint : DivX 5
Duration : 1h 32mn
Bit rate : 1 921 Kbps
Width : 720 pixels
Height : 544 pixels
Display aspect ratio : 4:3
Frame rate : 25.000 fps
Color space : YUV
Chroma subsampling : 4:2:0
Bit depth : 8 bits
Scan type : Progressive
Compression mode : Lossy
Bits/(Pixel*Frame) : 0.196
Stream size : 1.24 GiB (91%)
Writing library : DivX 6.7.0 (UTC 2007-09-20)

Audio
ID : 1
Format : AC-3
Format/Info : Audio Coding 3
Mode extension : CM (complete main)
Codec ID : 2000
Duration : 1h 32mn
Bit rate mode : Constant
Bit rate : 192 Kbps
Channel(s) : 2 channels
Channel positions : Front: L R
Sampling rate : 48.0 KHz
Bit depth : 16 bits
Compression mode : Lossy
Stream size : 127 MiB (9%)
Alignment : Split accross interleaves
Interleave, duration : 96 ms (2.40 video frames)
Interleave, preload duration : 96 ms
Language : Russian

pb.wtf



Скачать Ангелы смерти через торрент http://pic.kartinco.top/images/6/eb713.jpg Скачать фильм Ангелы смерти через торрент бесплантно в хорошем качестве Описание: Фильм посвящен 50-летию Великой Сталинградской битвы (1942-1943). История любви молодого сибирского парня-снайпера и девушки, ... 9.8 10 6
Торрент: Зарегистрирован [2014-05-07 12:16] · скачан: 189 раз
Статус: √ проверено
Размер: 1.37 GB
Как cкачать? Как скачать Ангелы смерти через торрент | qTorrent

% Раздел Тема Автор DL S | L
T Фильмы (мультфильмы) cо спонсором показа (Новинки AVI/MKV) [ 1.37 GB ] Колдовство 14: Ангел Смерти / Witchcraft 14: Angel of Death [2016 WEB-DLRip] MVO ["Синема УС] bober100 Скачать
1 | 0
T Фильмы (мультфильмы) cо спонсором показа (Новинки AVI/MKV) [ 2.76 GB ] Колдовство 14: Ангел Смерти / Witchcraft 14: Angel of Death [2016 WEB-DL 720p] MVO ["Синема УС] bober100 Скачать
1 | 0
Фильмы [HD 720p, 1080p] (Хороший звук DUB, MVO) [ 9.26 GB ] Женщина в черном 2: Ангел смерти / The Woman in Black 2: Angel of Death [2014 BDRip 1080p] DUB Ворон Скачать
1 | 0
Фильмы 2014 [DVDrip, WEB-DLRip, HDrip] [ 1.43 GB ] Женщина в черном 2: Ангел смерти / The Woman in Black 2: Angel of Death [2014 HDRip] DUB Ворон Скачать
1 | 0
Фильмы (DVD фильмы) [ 3.94 GB ] Женщина в черном 2: Ангел смерти / The Woman in Black 2: Angel of Death [2014 DVD5] R5 voovaz Скачать
1 | 0
Фильмы без перевода [ 1.56 GB ] Женщина в черном 2: Ангел смерти / The Woman in Black 2: Angel of Death [2014 HDRip Оригинал] makarevich Скачать
1 | 0
Аниме [HD 720p, 1080p] [ 18.28 GB ] Ангелы Смерти / Burst Angel [24 из 24 эпизодов][2005 аниме меха BDRip] oNLik Скачать
1 | 0

28-11-2019 20:33  

Отключить всю рекламу на сайте

07-05-2014 13:53 Ангелы смерти Скачать торрент  

спасибо, чёт не смотрел, ща глянем!
Вечная Слава Героям!pb.wtf



08-05-2014 01:54 Ангелы смерти Скачать торрент  

Axion писал(а):

спасибо, чёт не смотрел, ща глянем!
Вечная Слава Героям!

Бывает,я тоже много чего не смотрел,моя половина мне "Гальдемаринов" навязала в свое время-норма!!!!pb.wtf



    Дорогой пользователь! Огромная просьба, поблагодарите релизера, оцените раздачу и оставьте свои комментарий, если Вы скачали Ангелы смерти через торрент бесплатно! Внесите свою лепту в развитие PiratBit!
    Комментировать посты могут только пользователи прошедшие не сложную регистрацию
    Показать сообщения:    

    Ангелы смерти через торрент
    Скачать бесплатно Ангелы смерти
    Ангелы смерти скачать торрент
    Ангелы смерти смотреть онлайн
    Cкачать фильм Ангелы смерти бесплатно
    Ангелы смерти скачать торрент в хорошем качестве
    Ангелы смерти смотреть онлайн бесплатно в хорошем качестве


    Вы не можете начинать темы
    Вы не можете отвечать на сообщения
    Вы не можете редактировать свои сообщения
    Вы не можете удалять свои сообщения
    Вы не можете голосовать в опросах
    Вы не можете прикреплять файлы к сообщениям
    Вы можете скачивать файлы