Ссылка на приватное зеркало нашего сайта всего за 1$. Внимание количество ограничено!!!

2 сезон

iTunes

1 сезон

1

2 сезон

2 сезон

iTunes

1 сезон

RePack

30

Ultimate

ВАЖНО

ИГРА 18+

pack

RePack

MK11
pack

Забери бонус

RePack

jed

!!Акция!!

Alien_Rage

RePack

fifa19

RePack

Assassins Creed: Odyssey

RePack

NEED FOR SPEED™ PAYBACK

4 сезон

9 сезон

Бесстыжие 9 сезон

Все сериалы

все сериалы на PB.wtf

RePack

FAR CRY 5
  

В осаде (Захват) / Under Siege (Эндрю Дэвис) [1992 г., Боевик, триллер, драма, BD-Remux, Профессиональный многоголосый] pb.wtf

В осаде через торрент pb.wtf

Размер: 17.1 GB | Добавлен: 6 лет 6 мес. назад | Торрент скачан:4 раза
Скачать  

07-05-2014 12:28 В осаде Скачать торрент  

В осаде (Захват) / Under Siege
Год выпуска: 1992
Страна: США
Жанр: Боевик, триллер, драма
Продолжительность: 01:42:00
Перевод: Профессиональный многоголосый+Профессиональный Двухголосый+
Авторский одноголосый (А.Гаврилов)+Оригинал

Субтитры: Русские, английские

Режиссер: Эндрю Дэвис

В ролях: Стивен Сигал, Томми Ли Джонс, Гэри Бьюзи, Эрика Элениак, Колм Мини, Патрик О`Нил, Энди Романо, Ник Манкузо, Дэмиан Чапа, Трой Эванс, Дэвид МакНайт, Ли Хинтон, Гленн Моршауэр, Лео Александр, Джон Роттгер, Брэд Ри, Майкл Уэлден, Берни Кейси, Рики Пьер, Рэймонд Крус, Дуан Дэвис, Эдди Бо Смит мл., Ричард Джонс, Том Рейнольдс, Том Мазила, Кирк Барроуз, Джордж Чунг, Джим Чименто, Крэйг Данн, Дэниэл Дюпон, Фрэнк Феррара, Адам Джеймс, Майкл Гэйлорд Джеймс, Мигель Нино, Дэвид Уэбстер, Джин Барж, Энтони Дж. Браун, Хирам Баллок, Кристофер Алан Камерон, Ричард Дэвис, Тад Робинсон, Вэндалл Вейн Стюарт

Описание: Террористы – бывшая элита коммандос – под видом сопровождения рок-группы, которая должна выступить перед военными моряками, пробираются на корабль с ядерным оружием. Расправившись с основной частью командного состава они пытаются шантажировать правительство США. Все для захватчиков судна складывалось благополучно до тех пор, пока они не решили изолировать повара – бывшего морского пехотинца. Кок не мог стерпеть такого издевательства: он практически в одиночку хоронит планы подонков один за другим.

Качество: BD-Remux
Формат: MKV
Видео кодек: H.264
Аудио кодек: AC3
Видео: MPEG-4 AVC, (1920x1080),21 200 Кбит/с, 23.976 кадра/сек
Аудио#1: AC-3, 6 ch, 448 kbps (Rus) 48.0 KHz Профессиональный многоголосый
Аудио#2: AC-3, 6 ch, 448 kbps (Rus) 48.0 KHz Профессиональный Двухголосый
Аудио#3: AC-3, 6 ch, 640 kbps (Rus) 48.0 KHz Авторский одноголосый (А.Гаврилов)
Аудио#4: AC-3, 6 ch, 640 kbps (Eng) 48.0 KHz Оригинал
скриншот   скриншот   скриншот  

Тип потока: Видео
Длительность: 01:42:31
Кодек: VC-1
Кодек/профиль: Advanced@L3
Кодек/ID: V_MS/VFW/FOURCC / WVC1
Размеры изображения: 1920 x 1080 (16:9)
Частота кадров: 23.976 fps
Частота кадров/тип: Constant
Размер потока: 15.2 GiB (89%)
Битрейт: 21.2 Mbps
Метод сжатия: Lossy
Цветовое пространство: YUV
Тип развёртки: Progressive
Колориметрия: 4:2:0
Глубина: 8 bits
:
Тип потока: Звук #1
Язык: Russian
Название: Многоголосый
Длительность: 01:42:31.776
Кодек: AC-3
Кодек/описание: Audio Coding 3
Кодек/ID: A_AC3
Частота дискретизации: 48.0 KHz
Каналов: 6 channels
Битрейт: 448 Kbps
Битрейт/тип: Constant
Размер потока: 329 MiB (2%)
Глубина: 16 bits
Метод сжатия: Lossy
:
Тип потока: Звук #2
Язык: Russian
Название: Двухголосый
Длительность: 01:42:31.776
Кодек: AC-3
Кодек/описание: Audio Coding 3
Кодек/ID: A_AC3
Частота дискретизации: 48.0 KHz
Каналов: 6 channels
Битрейт: 448 Kbps
Битрейт/тип: Constant
Размер потока: 329 MiB (2%)
Глубина: 16 bits
Метод сжатия: Lossy
:
Тип потока: Звук #3
Язык: Russian
Название: Гаврилов
Длительность: 01:42:31.776
Кодек: AC-3
Кодек/описание: Audio Coding 3
Кодек/ID: A_AC3
Частота дискретизации: 48.0 KHz
Каналов: 6 channels
Битрейт: 640 Kbps
Битрейт/тип: Constant
Размер потока: 469 MiB (3%)
Глубина: 16 bits
Метод сжатия: Lossy
:
Тип потока: Звук #4
Язык: English
Длительность: 01:42:31.776
Кодек: AC-3
Кодек/описание: Audio Coding 3
Кодек/ID: A_AC3
Частота дискретизации: 48.0 KHz
Каналов: 6 channels
Битрейт: 640 Kbps
Битрейт/тип: Constant
Размер потока: 469 MiB (3%)
Глубина: 16 bits
Метод сжатия: Lossy
:
Тип потока: Субтитры #1
Язык: Russian
Формат: UTF-8
Формат/подробно: UTF-8 Plain Text
:
Тип потока: Субтитры #2
Язык: English
Формат: ASS
Формат/подробно: Advanced Sub Station Alpha

pb.wtf



Скачать В осаде через торрент http://pic.kartinco.top/images/6/up48h.jpg Скачать фильм В осаде через торрент бесплантно в хорошем качестве Описание: Террористы – бывшая элита коммандос – под видом сопровождения рок-группы, которая должна выступить перед военными моряками, ... 10 10 3
Info! Золотая раздача, скачанное не засчитывается.
Торрент: Зарегистрирован [2014-05-07 12:28] · скачан: 4 раз
Статус: √ проверено
Размер: 17.1 GB
Как cкачать? Как скачать В осаде через торрент | qTorrent

% Раздел Тема Автор DL S | L
Фильмы (HD 720p, 1080p) (48-60 fps) [ 3.35 GB ] В осаде 2: Темная территория / Under Siege 2: Dark Territory [1995 BDRip 720p / 60 FPS ] от R.G. HD-Films slaventi-69 Скачать
2 | 0
Фильмы (HD 720p, 1080p) (48-60 fps) [ 3 GB ] В осаде / Under Siege [1992 BDRip 720p / 60 FPS ] alien2015 Скачать
1 | 1
Фильмы (HD 720p, 1080p) (48-60 fps) [ 4.76 GB ] В осаде / Under Siege [1992 BDRip 720p / 60 FPS ] от R.G. HD-Films slaventi-69 Скачать
3 | 0
Фильмы 2019-2020 [DVDrip, WEB-DLRip, HDrip] (DUB, MVO) [ 1.45 GB ] Ночь в осаде / Trauma Center [2019 BDRip] bober100 Скачать
1 | 0
Фильмы [HD 720p, 1080p] (Хороший звук DUB, MVO) [ 7.26 GB ] Ночь в осаде / Trauma Center [2019 BDRip 1080p] bober100 Скачать
1 | 0
Фильмы (Blu-ray, BD-Remux, HDDVD) [ 18.8 GB ] Ночь в осаде / Trauma Center [2019 BD Remux 1080p] bober100 Скачать
1 | 0
Фильмы [HD 720p, 1080p] (Хороший звук DUB, MVO) [ 3.79 GB ] Ночь в осаде / Trauma Center [2019 BDRip 720p] bober100 Скачать
1 | 0

28-11-2019 20:33  

Отключить всю рекламу на сайте

    Дорогой пользователь! Огромная просьба, поблагодарите релизера, оцените раздачу и оставьте свои комментарий, если Вы скачали В осаде через торрент бесплатно! Внесите свою лепту в развитие PiratBit!
    Комментировать посты могут только пользователи прошедшие не сложную регистрацию
    Показать сообщения:    

    В осаде через торрент
    Скачать бесплатно В осаде
    В осаде скачать торрент
    В осаде смотреть онлайн
    Cкачать фильм В осаде бесплатно
    В осаде скачать торрент в хорошем качестве
    В осаде смотреть онлайн бесплатно в хорошем качестве


    Вы не можете начинать темы
    Вы не можете отвечать на сообщения
    Вы не можете редактировать свои сообщения
    Вы не можете удалять свои сообщения
    Вы не можете голосовать в опросах
    Вы не можете прикреплять файлы к сообщениям
    Вы можете скачивать файлы