новый адрес
Мега распродажа FORZA HORIZON 4 ULTIMATE+ВСЕ DLC+ОНЛАЙН всего за 499р. 349 руб. (супер цена). Внимание количество ограничено!!!

iTunes

1+1

iTunes

мы

iTunes

1

iTunes

Чернобыль

iTunes

Ральф против интернета

Лицензия

ПШазам

Лицензия

Игра престолов

Лицензия

30
pack

ВАЖНО

!!Акция!!

Alien_RageХит недели

RePack

Resident Evil 21

ИГРА 18+

pack

RePack

Metro:Exodus

!!Акция!!

Alien_Rage

RePack

fifa19

RePack

Assassins Creed: Odyssey

RePack

NEED FOR SPEED™ PAYBACK

3 сезон

9 сезон

Бесстыжие 9 сезон

Все сериалы

все сериалы на PB.wtf

RePack

FAR CRY 5
Ребята, катастрофически не хватает 1900р. для оплаты серверов за Октябрь (всвязи с блокировками трафик упал в 3 раза), 1-2р., выручайте.
  

Долгие вёрсты войны / Фильмы: 1-3 серии из 3 (Александр Карпов) [1975 г., драма, военный, DVB] pb.wtf

Долгие вёрсты войны через торрент pb.wtf

Размер: 5.57 GB | Добавлен: 5 лет 6 мес. назад | Торрент скачан:65 раз
Скачать  

07-05-2014 13:30 Долгие вёрсты войны Скачать торрент  

Долгие вёрсты войны
Год выпуска: 1975
Страна: СССР Беларусьфильм
Жанр: драма, военный
Продолжительность: 01:15:18 + 01:06:25 + 01:04:36

Режиссер: Александр Карпов
Сценарий: Василь Быков

Премьера в мире: 4 мая 1976

В ролях: Вадим Яковлев, Юрий Дуванов, Николай Федорцов, Александр Вдовин, Александр Серский, Борис Щербаков, Виктор Петров, Александр Карпов, Борис Руднев, Геннадий Овсянников, Алексей Инжеватов, Александр Жданов, Павел Первушин, Анатолий Веденкин, Фёдор Шмаков, Раднэр Муратов, Николай Сморчков, Улдис Пуцитис, Эдуард Горячий, Павел Кормунин, Светлана Крючкова, Михаил Матвеев, Александр Потапов, Николай Ферапонтов, Юрий Овсянко, Валерий Шушкевич, Георгий Тейх, Валентина Титова, Паул Буткевич, Николай Кузьмин, Виктор Уральский, Анатолий Чарноцкий, Владимир Грицевский, Евгений Покрамович, Александр Толстых
Описание: По мотивам повестей В.Быкова о героизме советских воинов в годы Великой Отечественной войны. В основе сюжета три боевых эпизода, относящиеся к началу войны, коренному перелому в ходе войны и окончательному разгрому врага.
Фильм первый - "Журавлиный крик":
Август 1941 года. Остатки разбитого батальона во главе с лейтенантом Ананьевым получают приказ оборонять железнодорожную станцию до подхода дивизии. На всякий случай Ананьев оставляет на переезде шестерых бойцов. Но утром именно здесь немцы идут на прорыв...
Фильм второй - "Атака с ходу":
Март 1943 года. На марше рота старшего лейтенанта Ананьева. Солдат Кривошеев докладывает, что недалеко на горке немцы роют укрепления. Ананьев решает взять высоту с ходу, пока немцы там не укрепились. В результате короткого ночного боя рота занимает немецкие окопы. Утром ей приходится отступить, но уже послано донесение командованию о взятии высоты, и рота снова идет в атаку...
Фильм третий - "На восходе солнца":
Май 1945 года. Берлин уже взят. Майор Ананьев, возвращаясь из госпиталя в часть, вместе с несколькими офицерами вынужден задержаться на немецкой вилле. Здесь они узнают о капитуляции Германии. Вечером капитан Петров у реки замечает немцев. Он пытается сказать им о капитуляции, но его убивают. На вилле слышат выстрелы. Сержант Орлов предлагает пропустить немцев, прорывающихся к американцам, но Климчук возражает: "А если они нашим в тыл ударят?". Начинается бой...
Качество: DVB
Формат: MPEG
Видео кодек: MPEG2
Аудио кодек: MPEG Audio
Видео: MPEG2 Video, 720x576 (4:3), 25.00fps, 3 727 Kbps
Аудио: MPEG Audio, 48000Hz, stereo, 192kbps
Релиз от: Cheef mate





General
Complete name : I:\22\Долгие версты\Долгие версты войны 1.mpg
Format : MPEG-PS
File size : 2.11 GiB
Duration : 1h 15mn
Overall bit rate mode : Variable
Overall bit rate : 3 999 Kbps

Video
ID : 224 (0xE0)
Format : MPEG Video
Format version : Version 2
Format profile : Main@Main
Format settings, BVOP : Yes
Format settings, Matrix : Custom
Duration : 1h 15mn
Bit rate mode : Variable
Bit rate : 3 727 Kbps
Maximum bit rate : 5 000 Kbps
Width : 720 pixels
Height : 576 pixels
Display aspect ratio : 4:3
Frame rate : 25.000 fps
Standard : PAL
Color space : YUV
Chroma subsampling : 4:2:0
Bit depth : 8 bits
Scan type : Interlaced
Scan order : Top Field First
Compression mode : Lossy
Bits/(Pixel*Frame) : 0.359
Stream size : 1.97 GiB (93%)

Audio
ID : 192 (0xC0)
Format : MPEG Audio
Format version : Version 1
Format profile : Layer 2
Duration : 1h 15mn
Bit rate mode : Constant
Bit rate : 192 Kbps
Channel(s) : 2 channels
Sampling rate : 48.0 KHz
Compression mode : Lossy
Stream size : 104 MiB (5%)

pb.wtf



Скачать Долгие вёрсты войны через торрент http://pic.kartinco.top/images/6/yl9ur.jpg Скачать фильм Долгие вёрсты войны через торрент бесплантно в хорошем качестве Описание: По мотивам повестей В.Быкова о героизме советских воинов в годы Великой Отечественной войны. В основе сюжета три боевых эпизода, ... 10 10 5
Info! Золотая раздача, скачанное не засчитывается.
Торрент: Зарегистрирован [2014-05-07 13:30] · скачан: 65 раз
Статус: √ проверено
Размер: 5.57 GB
Как cкачать? Как скачать Долгие вёрсты войны через торрент | qTorrent



Последний раз редактировалось: lug30 (2014-05-07 13:41), всего редактировалось 1 раз


>> Регистрируемся здесь <<






Отзывы и комментарии о схеме читаем и пишем здесь: ---> Отзывы и комментарии о схеме

Новые благодарочки в телеграм довольных пользователей:
скриншот   скриншот   скриншот   скриншот   скриншот

07-05-2014 13:37 Долгие вёрсты войны Скачать торрент  

фильм черно-белый,но оч хороший!!!pb.wtf



07-05-2014 13:41 Долгие вёрсты войны Скачать торрент  

Да,это так...С детства его помню)pb.wtf



07-05-2014 13:43 Долгие вёрсты войны Скачать торрент  

intellekt74 писал(а):

Да,это так...С детства его помню)

Да ,это точно ,прямо в цель,уважаю !!!pb.wtf



07-05-2014 13:59 Долгие вёрсты войны Скачать торрент  

вспомним, спасибо!
Вечная Слава Героям!pb.wtf



    Дорогой пользователь! Огромная просьба, поблагодарите релизера, оцените раздачу и оставьте свои комментарий, если Вы скачали Долгие вёрсты войны через торрент бесплатно! Внесите свою лепту в развитие PiratBit!
    Комментировать посты могут только пользователи прошедшие не сложную регистрацию
    Показать сообщения:    

    Долгие вёрсты войны через торрент
    Скачать бесплатно Долгие вёрсты войны
    Долгие вёрсты войны скачать торрент
    Долгие вёрсты войны смотреть онлайн
    Cкачать фильм Долгие вёрсты войны бесплатно
    Долгие вёрсты войны скачать торрент в хорошем качестве
    Долгие вёрсты войны смотреть онлайн бесплатно в хорошем качестве


    Вы не можете начинать темы
    Вы не можете отвечать на сообщения
    Вы не можете редактировать свои сообщения
    Вы не можете удалять свои сообщения
    Вы не можете голосовать в опросах
    Вы не можете прикреплять файлы к сообщениям
    Вы можете скачивать файлы