>

5.6

iTunes

6.1

MVO

5.7

MVO

1

7.4

1 сезон

6.8

iTunes

7.2

1 сезон

13

6.7

1 сезон

8.3

RePack

30

Deluxe

pack

9.9

Лицензия

ВАЖНО

ИГРА 18+

pack

7.3

RePack

MK11

7.7

RePack

jed

7.8

RePack

fifa19

8.5

RePack

RDR2

RePack

NEED FOR SPEED™ PAYBACK

4 сезон

9 сезон

Бесстыжие 9 сезон

Все сериалы

все сериалы на PB.wtf

RePack

FAR CRY 5

Anonymous, доброй ночи, мы катастрофически не успеваем собрать деньги на оплату серверов, помогите нам пожалуйста 5,10,15р., для нас важна любая помощь . В качестве благодарности мы отключим Вам всю рекламу на сайте (укажите свой ник в строку Ваше имя)!

×
  
Magnet ссылка

Женя, Женечка и "Катюша" (Владимир Мотыль) [1967, СССР, Комедия, мелодрама, военный, DVDRip] pb.wtf

Женя, Женечка и "Катюша" через торрент pb.wtf

Размер: 1.45 GB | Добавлен: 7 лет 4 мес. назад | Торрент скачан:153 раза
Смотреть онлайн Женя, Женечка и "Катюша" | Скачать    Ребята, помогите собрать деньги на оплату серверов!!!

07-05-2014 14:56 Женя, Женечка и "Катюша" Скачать торрент  

Женя, Женечка и "Катюша"
Год выпуска: 1967
Страна: СССР
Жанр: Комедия, мелодрама, военный
Продолжительность: 01:20:05
Перевод: Оригинал
Субтитры: Нет
Режиссер: Владимир Мотыль

В ролях: Олег Даль (Женя Колышкин), Галина Фигловская (Женечка Земляникина), Михаил Кокшенов (Захар Косых), Павел Морозенко (Алексей Зырянов), Георгий Штиль (Ромадин), Адольф Ильин (командир дивизиона), Бернд Шнейдер (Зигфрид), Марк Бернес (полковник Караваев), Любовь Малиновская (хозяйка дома), Николай Мартон (немецкий офицер)

Описание:

Война, 1944 год. Молоденький Женя Колышкин, живущий в мире своих фантазий и прочитанных книг, никак не может вписаться в окружающую его действительность. Он постоянно попадает в забавные переделки: то случайно заходит к немцам на Новый Год, то в бою его придавливает ящиком и, наконец, самое нелепое, что он мог сделать, так это влюбиться в связистку Земляникину! Ведь не для кого ни секрет, какой у нее нрав! Хотя, чего только не случается на войне... Олег Даль ("В четверг и больше никогда"), Марк Бернес ("Два бойца"), Георгий Штиль ("Без видимых причин"), Любовь Малиновская ("Война под крышами") в фильме о войне "Женя, Женечка и "Катюша".


Качество видео: DVDRip
Формат видео: AVI
Видеокодек: XviD
Аудиокодек: AC3
Видео: MPEG4, XviD, 704x528 (4:3), 25.000 fps, 2 136 Kbps (0.230 bit/pixel)
Аудио: AC-3, 48.0 KHz, 6 ch, 448 Kbps, CBR

Сценарий: Владимир Мотыль, Булат Окуджава
Оператор: Константин Рыжов
Художники: Виктор Волин, В. Рахматуллина
Композитор: Исаак Шварц

General
Полное имя : D:\Video\Jenya.Jenechka.i.Katyusha.1967.DVDRip.All.Films.avi
Формат : AVI
Формат/Информация : Audio Video Interleave
Размер файла : 1.45 GiB
Продолжительность : 1h 20mn
Общий поток : 2 594 Kbps
Программа кодирования : VirtualDubMod 1.5.10.3 | www.virtualdub-fr.org || (build 2550/release)
Библиотека кодирования : VirtualDubMod build 2550/release

Video
Идентификатор : 0
Формат : MPEG-4 Visual
Профиль формата : Advanced Simple@L5
Параметр BVOP формата : 1
Параметр QPel формата : No
Параметр GMC формата : No warppoints
Параметр матрицы формата : Custom
Идентификатор кодека : XVID
Идентификатор кодека/Подсказка : XviD
Продолжительность : 1h 20mn
Битрейт : 2 136 Kbps
Ширина : 704 pixels
Высота : 528 pixels
Соотношение сторон : 4:3
Частота кадров : 25.000 fps
Цветовое пространство : YUV
Субдискретизация насыщенности : 4:2:0
Битовая глубина : 8 bits
Тип развёртки : Progressive
Метод сжатия : Lossy
Бит/(Пиксели*Кадры) : 0.230
Размер потока : 1.20 GiB (82%)
Библиотека кодирования : XviD 63

Audio
Идентификатор : 1
Формат : AC-3
Формат/Информация : Audio Coding 3
Расширение режима : CM (complete main)
Параметр Endianness формата : Big
Идентификатор кодека : 2000
Продолжительность : 1h 20mn
Вид битрейта : Constant
Битрейт : 448 Kbps
Каналы : 6 channels
Расположение каналов : Front: L C R, Side: L R, LFE
Частота : 48.0 KHz
Битовая глубина : 16 bits
Метод сжатия : Lossy
Задержка видео : 285ms
Размер потока : 257 MiB (17%)
Выравнивание : Split accross interleaves
Продолжительность промежутка : 40 ms (1.00 video frame)
Время предзагрузки промежутка : 500 ms


Съёмки фильма частично проходили в Калининграде. Опрокидывание канистры с бензином происходит на фоне Кафедрального собора — единственного в России готического собора XIV века.
На роль Жени Колышкина первоначально пробовался Борислав Брондуков.История, когда советский солдат, заблудившись с посылкой, попал к немцам под Новый год, была заимствована из фронтовых газет. В отличие от Жени Колышкина, солдат скрыл, что был в расположении врага, и это открылось только к концу войны.

скриншот   скриншот   скриншот   скриншот   скриншот  скриншот   скриншот   скриншот   скриншот   скриншот  
pb.wtf



Скачать Женя, Женечка и "Катюша" через торрент http://i4.imageban.ru/out/2012/07/28/3987449d5f35a3102ce1ffa90d3bd191.jpg Скачать, смотреть онлайн Женя, Женечка и "Катюша" бесплантно в хорошем качестве Описание: Война, 1944 год. Молоденький Женя Колышкин, живущий в мире своих фантазий и прочитанных книг, никак не может вписаться в ... 10 10 8
Info! Золотая раздача, скачанное не засчитывается.
Торрент: Зарегистрирован [2014-05-07 14:56] · скачан: 153 раз
Статус: √ проверено
Размер: 1.45 GB
Как cкачать? Как скачать Женя, Женечка и "Катюша" через торрент | UTorrent

28-11-2019 20:33  

Отключить всю рекламу на сайте

    Дорогой пользователь! Огромная просьба, поблагодарите релизера, оцените раздачу и оставьте свои комментарий, если Вы скачали Женя, Женечка и "Катюша" через торрент бесплатно!
    Комментировать посты могут только пользователи прошедшие не сложную регистрацию
    Показать сообщения:    

    Женя, Женечка и "Катюша" через торрент
    Скачать бесплатно Женя, Женечка и "Катюша"
    Женя, Женечка и "Катюша" скачать торрент
    Женя, Женечка и "Катюша" смотреть онлайн
    Cкачать фильм Женя, Женечка и "Катюша" бесплатно
    Женя, Женечка и "Катюша" скачать торрент в хорошем качестве
    Женя, Женечка и "Катюша" смотреть онлайн бесплатно в хорошем качестве


    Вы не можете начинать темы
    Вы не можете отвечать на сообщения
    Вы не можете редактировать свои сообщения
    Вы не можете удалять свои сообщения
    Вы не можете голосовать в опросах
    Вы не можете прикреплять файлы к сообщениям
    Вы можете скачивать файлы