2 сезон

iTunes

MVO

1

2 сезон

iTunes

iTunes

1 сезон

RePack

30

Ultimate

ВАЖНО

ИГРА 18+

pack

RePack

MK11
pack

Легкие деньги

RePack

jed

RePack

fifa19

RePack

RDR2

RePack

NEED FOR SPEED™ PAYBACK

4 сезон

9 сезон

Бесстыжие 9 сезон

Все сериалы

все сериалы на PB.wtf

RePack

FAR CRY 5

Anonymous, добрый день, мы не успеваем собрать деньги на оплату серверов за декабрь и январь, помогите нам пожалуйста в это трудное время. В качестве благодарности мы отключим Вам всю рекламу на сайте (укажите свой ник в строку Ваше имя)!

×
  
Magnet ссылка

Ведьмы из Сугаррамурди / Las brujas de Zugarramurdi (Алекс де ла Иглесиа / Álex de la Iglesia) [2013 г., Ужасы, драма, комедия, BDRip-AVC] DUB Лицензия pb.wtf

Ведьмы из Сугаррамурди через торрент pb.wtf

Размер: 2.18 GB | Добавлен: 6 лет 8 мес. назад | Торрент скачан:280 раз
Скачать  

07-05-2014 16:52 Ведьмы из Сугаррамурди Скачать торрент  

«Расслабься, ты заколдован»
Ведьмы из Сугаррамурди / Las brujas de Zugarramurdi
Год выпуска: 2013
Страна: Испания, Франция / arte France Cinéma, Enrique Cerezo Producciones Cinematográficas S.A., La Ferme! Productions
Жанр: Ужасы, драма, комедия
Продолжительность: 01:54:03
Перевод: Дубляж [R5]
Субтитры: Русские

Режиссер: Алекс де ла Иглесиа / Álex de la Iglesia



В ролях: Марио Касас, Уго Силва, Хавьер Ботет, Сантьяго Сегура, Каролина Банг, Кармен Маура, Карлос Аресес, Секун де ла Роса, Макарена Гомес, Пепон Ниэто

Описание: Трое незадачливых воришек попадают в заколдованный город, где на протяжении веков правят бал коварные ведьмы. Задача героев проста — унести ноги из страшного места. Для этого надо постараться не влюбиться в обитательниц этого гиблого места…

Качество: BDRip-AVC
Формат: MKV
Видео кодек: H.264
Аудио кодек: AC3
Видео: 1040x442 (2,35:1), 23,976 fps, 2364 Кbps, 0.214 bit/pixel
Аудио: 48 kHz, AC3 Dolby Digital, 3/2 (L,C,R,l,r) + LFE ch, 384.00 kbps

Релиз группы:
Автор рипа: potroks

Общее
Уникальный идентификатор : 238907249118855814124017255449471429495 (0xB3BBDCCCDC35EEFD973CB7CA445F2B77)
Полное имя : Ved'my.iz.Sugarramurdi.2013.RUS.BDRip.x264.-HELLYWOOD.mkv
Формат : Matroska
Версия формата : Version 4 / Version 2
Размер файла : 2,18 Гбайт
Продолжительность : 1 ч. 53 м.
Общий поток : 2750 Кбит/сек
Название фильма : HELLYWOOD - rip by potroks
Дата кодирования : UTC 2014-05-07 16:12:19
Программа кодирования : mkvmerge v5.9.0 ('On The Loose') built on Dec 15 2012 16:39:58
Библиотека кодирования : libebml v1.3.0 + libmatroska v1.4.0

Видео
Идентификатор : 1
Формат : AVC
Формат/Информация : Advanced Video Codec
Профиль формата : High@L4.1
Параметр CABAC формата : Да
Параметр ReFrames формата : 10 кадров
Идентификатор кодека : V_MPEG4/ISO/AVC
Продолжительность : 1 ч. 53 м.
Битрейт : 2364 Кбит/сек
Ширина : 1040 пикселей
Высота : 442 пикселя
Соотношение сторон : 2,35:1
Режим частоты кадров : Постоянный
Частота кадров : 24,000 кадра/сек
Цветовое пространство : YUV
Субдискретизация насыщенности : 4:2:0
Битовая глубина : 8 бит
Тип развёртки : Прогрессивная
Бит/(Пиксели*Кадры) : 0.214
Размер потока : 1,83 Гбайт (84%)
Заголовок : Las brujas de Zugarramurdi
Библиотека кодирования : x264 core 130 r2273 b3065e6
Настройки программы : cabac=1 / ref=10 / deblock=1:-2:-2 / analyse=0x3:0x133 / me=umh / subme=11 / psy=1 / psy_rd=0.99:0.02 / mixed_ref=1 / me_range=32 / chroma_me=1 / trellis=2 / 8x8dct=1 / cqm=0 / deadzone=21,11 / fast_pskip=0 / chroma_qp_offset=-3 / threads=9 / lookahead_threads=6 / sliced_threads=0 / nr=0 / decimate=0 / interlaced=0 / bluray_compat=0 / constrained_intra=0 / bframes=11 / b_pyramid=2 / b_adapt=2 / b_bias=0 / direct=3 / weightb=1 / open_gop=0 / weightp=2 / keyint=250 / keyint_min=23 / scenecut=40 / intra_refresh=0 / rc_lookahead=60 / rc=2pass / mbtree=0 / bitrate=2364 / ratetol=1.0 / qcomp=0.70 / qpmin=0 / qpmax=69 / qpstep=4 / cplxblur=20.0 / qblur=0.5 / vbv_maxrate=20000 / vbv_bufsize=20000 / nal_hrd=none / ip_ratio=1.35 / pb_ratio=1.25 / aq=1:0.80
Язык : Spanish
Default : Да
Forced : Нет

Аудио
Идентификатор : 2
Формат : AC-3
Формат/Информация : Audio Coding 3
Расширение режима : CM (complete main)
Параметр Endianness формата : Big
Идентификатор кодека : A_AC3
Продолжительность : 1 ч. 53 м.
Вид битрейта : Постоянный
Битрейт : 384 Кбит/сек
Каналы : 6 каналов
Расположение каналов : Front: L C R, Side: L R, LFE
Частота : 48,0 КГц
Битовая глубина : 16 бит
Метод сжатия : С потерями
Размер потока : 312 Мбайт (14%)
Заголовок : Dub | DD 5.1 @ 384 kbps
Язык : Russian
Default : Да
Forced : Нет

Текст
Идентификатор : 3
Формат : UTF-8
Идентификатор кодека : S_TEXT/UTF8
Идентификатор кодека/Информация : UTF-8 Plain Text
Язык : Russian
Default : Нет
Forced : Нет

Меню
00:08:20.542 : en:(01)00:08:20:542
00:15:58.083 : en:(02)00:15:58:083
00:26:36.667 : en:(03)00:26:36:667
00:36:33.833 : en:(04)00:36:33:833
00:46:20.000 : en:(05)00:46:20:000
00:55:10.792 : en:(06)00:55:10:792
01:05:20.250 : en:(07)01:05:20:250
01:14:36.125 : en:(08)01:14:36:125
01:24:48.125 : en:(09)01:24:48:125
01:34:55.625 : en:(10)01:34:55:625
01:46:21.042 : en:(11)01:46:21:042

pb.wtf



Скачать Ведьмы из Сугаррамурди через торрент http://i61.fastpic.ru/big/2014/0507/47/4826703ce982a131cfda9b2d56cd4d47.png Скачать фильм Ведьмы из Сугаррамурди через торрент бесплантно в хорошем качестве Описание: Трое незадачливых воришек попадают в заколдованный город, где на протяжении веков правят бал коварные ведьмы. Задача героев ... 8.7 10 10
Торрент: Зарегистрирован [2014-05-07 16:52] · скачан: 280 раз
Статус: √ проверено
Размер: 2.18 GB
Как cкачать? Как скачать Ведьмы из Сугаррамурди через торрент | UTorrent

% Раздел Тема Автор DL S | L
Фильмы 2013 [DVDrip, WEB-DLRip, HDrip] [ 1.46 GB ] Ведьмы из Сугаррамурди / Las brujas de Zugarramurdi [2013 Испания HDRip] Dub dexter lex Скачать
1 | 0


Последний раз редактировалось: potroks (2014-05-07 17:16), всего редактировалось 1 раз

28-11-2019 20:33  

Отключить всю рекламу на сайте

07-05-2014 17:05 Ведьмы из Сугаррамурди Скачать торрент  

адское дерьмо не качайтеpb.wtf



07-05-2014 18:39 Ведьмы из Сугаррамурди Скачать торрент  

MEXAHUK66 писал(а):

адское дерьмо не качайте

Да вот нифига! Это не тупая и плоская американская комедия. Французы умели всегда снимать фильмы. Хоть этот фильм и не несёт за собой хорошего сюжета, но тут действительно можно поржать.pb.wtf



07-05-2014 20:58 Ведьмы из Сугаррамурди Скачать торрент  

:paratrooper: ну поржать неособо конечно.. один разок -поглядеть можно..не совсем кафно.pb.wtf



    Дорогой пользователь! Огромная просьба, поблагодарите релизера, оцените раздачу и оставьте свои комментарий, если Вы скачали Ведьмы из Сугаррамурди через торрент бесплатно! Внесите свою лепту в развитие PiratBit!
    Комментировать посты могут только пользователи прошедшие не сложную регистрацию
    Показать сообщения:    

    Ведьмы из Сугаррамурди через торрент
    Скачать бесплатно Ведьмы из Сугаррамурди
    Ведьмы из Сугаррамурди скачать торрент
    Ведьмы из Сугаррамурди смотреть онлайн
    Cкачать фильм Ведьмы из Сугаррамурди бесплатно
    Ведьмы из Сугаррамурди скачать торрент в хорошем качестве
    Ведьмы из Сугаррамурди смотреть онлайн бесплатно в хорошем качестве


    Вы не можете начинать темы
    Вы не можете отвечать на сообщения
    Вы не можете редактировать свои сообщения
    Вы не можете удалять свои сообщения
    Вы не можете голосовать в опросах
    Вы не можете прикреплять файлы к сообщениям
    Вы можете скачивать файлы