новый адрес
Мега распродажа FORZA HORIZON 4 ULTIMATE+ВСЕ DLC+ОНЛАЙН всего за 499р. 349 руб. (супер цена). Внимание количество ограничено!!!

iTunes

1+1

iTunes

мы

iTunes

1

iTunes

Чернобыль

iTunes

Ральф против интернета

Лицензия

ПШазам

Лицензия

Оно 2

Лицензия

30
pack

ВАЖНО

!!Акция!!

Alien_RageХит недели

RePack

Resident Evil 21

ИГРА 18+

pack

RePack

jed

!!Акция!!

Alien_Rage

RePack

fifa19

RePack

Assassins Creed: Odyssey

RePack

NEED FOR SPEED™ PAYBACK

3 сезон

9 сезон

Бесстыжие 9 сезон

Все сериалы

все сериалы на PB.wtf

RePack

FAR CRY 5
Ребята, катастрофически не хватает 1900р. для оплаты серверов за Октябрь (всвязи с блокировками трафик упал в 3 раза), 1-2р., выручайте.
  

Добровольцы (Юрий Егоров) [1958, СССР, Военный, драма, DVDRip] pb.wtf

Добровольцы через торрент pb.wtf

Качают: 1 [ 0 KB/s ]
Размер: 1.37 GB | Добавлен: 5 лет 6 мес. назад | Торрент скачан:106 раз
Скачать  

07-05-2014 22:06 Добровольцы Скачать торрент  

Добровольцы
Год выпуска: 1958
Страна: СССР
Жанр: Военный, драма
Продолжительность: 01:31:05
Перевод: Оригинал
Субтитры: Нет
Режиссер: Юрий Егоров

В ролях: Михаил Ульянов, Петр Щербаков, Леонид Быков, Элина Быстрицкая, Людмила Крылова, Микаэла Дроздовская, Сергей Плотников, Виктор Чекмарев, Никифор Колофидин, Александр Сашин-Никольский, Нонна Мордюкова, Мария Виноградова, Павел Винник, Юрий Киреев, Юрий Горбунов, Иван Косых, Леонид Пирогов, Людмила Марченко, Иван Мочалов, Людмила Иванова, Валентин Брылеев, Светлана Харитонова, Елена Максимова, Николай Погодин, Алевтина Румянцева

Описание:

Вместе с сотнями других юношей и девушек на строительство первой очереди Московского метрополитена пришли комсомольцы Николай Кайтанов, Слава Уфимцев, Леша Акишин, девчата Леля и Маша. Их объединяет романтика подвига, стремление быть всегда на самом трудном и опасном участке. Мелькают дни, наполненные увлеченной работой, ставятся первые рекорды, переживаются первые утраты. Проходят годы. Жизнь далеко разбросала друзей. Начинается Великая Отечественная война. Снова комсомольцы-добровольцы на самых опасных рубежах...


Качество видео: DVDRip
Формат видео: AVI
Видеокодек: DivX
Аудиокодек: AC3
Видео: MPEG4, DivX 5, 720x544 (4:3), 25.000 fps, 1 757 Kbps (0.179 bit/pixel)
Аудио: AC-3, 48.0 KHz, 6 ch, 384 Kbps, CBR

Сценарий: Евгений Долматовский, Юрий Егоров
Оператор: Игорь Шатров
Художник: Петр Пашкевич
Композитор: Марк Фрадкин

General
Полное имя : D:\Video\DOBROVOLCI\Dobrovolci.avi
Формат : AVI
Формат/Информация : Audio Video Interleave
Размер файла : 1.37 GiB
Продолжительность : 1h 31mn
Общий поток : 2 148 Kbps
Программа кодирования : VirtualDubMod 1.5.4.1 (build 2178/release)
Библиотека кодирования : VirtualDubMod build 2178/release

Video
Идентификатор : 0
Формат : MPEG-4 Visual
Параметр BVOP формата : 1
Параметр QPel формата : No
Параметр GMC формата : No warppoints
Параметр матрицы формата : Default (H.263)
Режим смешивания : Packed bitstream
Идентификатор кодека : DX50
Идентификатор кодека/Подсказка : DivX 5
Продолжительность : 1h 31mn
Битрейт : 1 757 Kbps
Ширина : 720 pixels
Высота : 544 pixels
Соотношение сторон : 4:3
Частота кадров : 25.000 fps
Цветовое пространство : YUV
Субдискретизация насыщенности : 4:2:0
Битовая глубина : 8 bits
Тип развёртки : Progressive
Метод сжатия : Lossy
Бит/(Пиксели*Кадры) : 0.179
Размер потока : 1.12 GiB (82%)
Библиотека кодирования : DivX 6.8.5 (UTC 2009-08-20)

Audio
Идентификатор : 1
Формат : AC-3
Формат/Информация : Audio Coding 3
Расширение режима : CM (complete main)
Параметр Endianness формата : Big
Идентификатор кодека : 2000
Продолжительность : 1h 31mn
Вид битрейта : Constant
Битрейт : 384 Kbps
Каналы : 6 channels
Расположение каналов : Front: L C R, Side: L R, LFE
Частота : 48.0 KHz
Битовая глубина : 16 bits
Метод сжатия : Lossy
Размер потока : 250 MiB (18%)
Выравнивание : Split accross interleaves
Продолжительность промежутка : 96 ms (2.40 video frames)
Время предзагрузки промежутка : 96 ms

скриншот   скриншот   скриншот   скриншот   скриншот  скриншот   скриншот   скриншот   скриншот   скриншот  
pb.wtf



Скачать Добровольцы через торрент http://i4.imageban.ru/out/2012/07/28/3987449d5f35a3102ce1ffa90d3bd191.jpg Скачать фильм Добровольцы через торрент бесплантно в хорошем качестве Описание: Вместе с сотнями других юношей и девушек на строительство первой очереди Московского метрополитена пришли комсомольцы Николай ... 10 10 5
Info! Золотая раздача, скачанное не засчитывается.
Торрент: Зарегистрирован [2014-05-07 22:06] · скачан: 106 раз
Статус: √ проверено
Размер: 1.37 GB
Как cкачать? Как скачать Добровольцы через торрент | qTorrent

% Раздел Тема Автор DL S | L
Военное дело [ 598 MB ] Добровольцы [серии 1-2 из 2] [2009 Документальный война авиация IPTVRip] Один 777 Скачать
1 | 0
Политика, религия [ 163 MB ] Русские Добровольцы на Украине [2014 документальный WEBRip Оригинал] metanoia Скачать
1 | 0
Документальные фильмы и телепередачи [ 81 MB ] Удмуртское солнце тридцать три тысячи и лицензия для добровольца [2012 документальный WEBRip Оригинал] metanoia Скачать
1 | 0
Документальные фильмы и телепередачи [ 325 MB ] Русские добровольцы в армии Франко [2013 документальный WEBRip] metanoia Скачать
1 | 0
Фильмы 2009 [ 1.17 GB ] Забирая Чэнса / Taking Chance [2009 DVDRip] paul08 Скачать
1 | 0


>> Регистрируемся здесь <<






Отзывы и комментарии о схеме читаем и пишем здесь: ---> Отзывы и комментарии о схеме

Новые благодарочки в телеграм довольных пользователей:
скриншот   скриншот   скриншот   скриншот   скриншот
    Дорогой пользователь! Огромная просьба, поблагодарите релизера, оцените раздачу и оставьте свои комментарий, если Вы скачали Добровольцы через торрент бесплатно! Внесите свою лепту в развитие PiratBit!
    Комментировать посты могут только пользователи прошедшие не сложную регистрацию
    Показать сообщения:    

    Добровольцы через торрент
    Скачать бесплатно Добровольцы
    Добровольцы скачать торрент
    Добровольцы смотреть онлайн
    Cкачать фильм Добровольцы бесплатно
    Добровольцы скачать торрент в хорошем качестве
    Добровольцы смотреть онлайн бесплатно в хорошем качестве


    Вы не можете начинать темы
    Вы не можете отвечать на сообщения
    Вы не можете редактировать свои сообщения
    Вы не можете удалять свои сообщения
    Вы не можете голосовать в опросах
    Вы не можете прикреплять файлы к сообщениям
    Вы можете скачивать файлы