2 сезон

iTunes

MVO

1

2 сезон

iTunes

iTunes

1 сезон

RePack

30

Новинка

ВАЖНО

ИГРА 18+

pack

RePack

MK11
pack

Легкие деньги

RePack

jed

RePack

fifa19

RePack

RDR2

RePack

NEED FOR SPEED™ PAYBACK

4 сезон

9 сезон

Бесстыжие 9 сезон

Все сериалы

все сериалы на PB.wtf

RePack

FAR CRY 5

Anonymous, доброе утро, мы не успеваем собрать деньги на оплату серверов за декабрь и январь, помогите нам пожалуйста в это трудное время. В качестве благодарности мы отключим Вам всю рекламу на сайте (укажите свой ник в строку Ваше имя)!

×
  
Magnet ссылка

Смерть в сети / The Den (Захари Донохью / Zachary Donohue) [ 2013 , США , ужасы, триллер , WEB-DLRip ]DUB pb.wtf

Смерть в сети через торрент pb.wtf

Размер: 1.37 GB | Добавлен: 6 лет 8 мес. назад | Торрент скачан:1273 раза
Скачать  

09-05-2014 01:35 Смерть в сети Скачать торрент  

Смерть в сети / The Den«А что если вы увидите...»
Год выпуска: 2013
Страна: США
Жанр: ужасы, триллер
Продолжительность: 01:16:46
Перевод: Профессиональный (полное дублирование)
Субтитры: Нет
Режиссер: Захари Донохью / Zachary Donohue
Сценарий: Захари Донохью / Zachary Donohue, Лорен Томпсон / Lauren Thompson
Продюсер: Дэвид Брукс / David Brooks, Дэн Клифтон / Dan Clifton, Бернард Хант / Bernard Hunt
Оператор: Бернард Хант / Bernard Hunt
Композитор: Ивэн Голдман / Evan Goldman
В ролях:
Мелани Папалиа (Elizabeth Benton), Дэвид Шлачтенхауфен (Damien), Мэтт Риди (Sgt. Tisbert), Адам Шапиро (Max), Брайан Белл (Masked Killer), Рон Боттитта (Brianne's Dad), Кирк Бовилл (Dale), Тристиан Чейз (Video Chat Boy), Сайда Аррика Экулона (Sally), Гарретт Форнандер (Chat Boy), Джон Грэйди (Head Academic), Лили Хоуллман (Jenny)
Мировая премьера: 14 марта 2014
Релиз на DVD: 8 мая 2014
Описание:
Молодая женщина изучает привычки пользователей чата с использованием веб-камеры и невольно становится свидетелем жестокого убийства...
Рейтинг
kinopoisk.ru: 5.064 (1318)
imdb.com: 6.00 (799)
MPAA: R - Лицам до 17 лет обязательно присутствие взрослого
Качество: WEB-DLRip
Формат: AVI
Видео кодек: XviD
Аудио кодек: AC3
Видео: 2092 Кбит/сек, 720*400 (16:9), в 23,976 кадра/сек, MPEG-4 Visual (XviD)
Аудио: 448 Кбит/сек, 48,0 КГц, 16 бит, 6 каналов, AC-3
Общее
Полное имя : H:\ТОРРЕНТЫ\Смерть в сети.avi
Формат : AVI
Формат/Информация : Audio Video Interleave
Размер файла : 1,37 Гбайт
Продолжительность : 1 ч. 16 м.
Общий поток : 2549 Кбит/сек
Программа кодирования : VirtualDubMod 1.5.10.3 | www.virtualdub-fr.org || (build 2550/release)
Библиотека кодирования : VirtualDubMod build 2550/release

Видео
Идентификатор : 0
Формат : MPEG-4 Visual
Профиль формата : Advanced Simple@L5
Параметр BVOP формата : 2
Параметр QPel формата : Нет
Параметр GMC формата : Без точки перехода
Параметр матрицы формата : Default (H.263)
Идентификатор кодека : XVID
Идентификатор кодека/Подсказка : XviD
Продолжительность : 1 ч. 16 м.
Битрейт : 2092 Кбит/сек
Ширина : 720 пикселей
Высота : 400 пикселей
Соотношение сторон : 16:9
Частота кадров : 23,976 кадра/сек
Цветовое пространство : YUV
Субдискретизация насыщенности : 4:2:0
Битовая глубина : 8 бит
Тип развёртки : Прогрессивная
Метод сжатия : С потерями
Бит/(Пиксели*Кадры) : 0.303
Размер потока : 1,12 Гбайт (82%)
Библиотека кодирования : XviD 1.2.1 (UTC 2008-12-04)

Аудио
Идентификатор : 1
Формат : AC-3
Формат/Информация : Audio Coding 3
Расширение режима : CM (complete main)
Параметр Endianness формата : Big
Идентификатор кодека : 2000
Продолжительность : 1 ч. 16 м.
Вид битрейта : Постоянный
Битрейт : 448 Кбит/сек
Каналы : 6 каналов
Расположение каналов : Front: L C R, Side: L R, LFE
Частота : 48,0 КГц
Битовая глубина : 16 бит
Метод сжатия : С потерями
Размер потока : 246 Мбайт (18%)
Выравнивание : Разделение по промежуткам
Продолжительность промежутка : 42 мс. (1,00 видеокадр)
Время предзагрузки промежутка : 500 мс.

скриншот   скриншот   скриншот   скриншот   скриншот   скриншот   скриншот   скриншот   скриншот   скриншот  

pb.wtf



Скачать Смерть в сети через торрент https://pic.kartinco.top/images/6/g9bc7.jpg Скачать фильм Смерть в сети через торрент бесплантно в хорошем качестве Описание:Молодая женщина изучает привычки пользователей чата с использованием веб-камеры и невольно становится свидетелем жестокого ... 9.6 10 28
Торрент: Зарегистрирован [2014-05-09 01:35] · скачан: 1 273 раз
Статус: √ проверено
Размер: 1.37 GB
Как cкачать? Как скачать Смерть в сети через торрент | UTorrent

28-11-2019 20:33  

Отключить всю рекламу на сайте


09-05-2014 09:36 Смерть в сети Скачать торрент  

Ой спасибо огромное! Жена все мозги высосала с этим фильмом! Теперь будет кипятком писать, а я ее сначала пошантажирую немного!pb.wtf



10-05-2014 16:52 Смерть в сети Скачать торрент  

оу спс оценим что тут у насpb.wtf



11-05-2014 07:56 Смерть в сети Скачать торрент  

Хороший фильмец на самом деле. Смотрел в кинотеатре, думал, что чушь очередная, ан нет. Очень даже неплохой.pb.wtf



20-05-2014 17:30 Смерть в сети Скачать торрент  

Тупая , повёрнутая на социальных сетях получила своё.pb.wtf



04-06-2014 15:55 Смерть в сети Скачать торрент  

Фильм снятый через камеру ноутбука,я понимаю нет денег на хорошего оператора с профессиональной камерой,такие низкопробные фильмы надо просто выбрасывать на помойку, не смотрите этот фильм полный отстой...pb.wtf



14-07-2014 16:38 Смерть в сети Скачать торрент  

Жанр: Ужасы... Чуть не вырвало от этого слова, когда фильм посмотрел. В какой жопе там ужасы.pb.wtf



26-07-2014 19:15 Смерть в сети Скачать торрент  

no no nopb.wtf



    Дорогой пользователь! Огромная просьба, поблагодарите релизера, оцените раздачу и оставьте свои комментарий, если Вы скачали Смерть в сети через торрент бесплатно! Внесите свою лепту в развитие PiratBit!
    Комментировать посты могут только пользователи прошедшие не сложную регистрацию
    Показать сообщения:    

    Смерть в сети через торрент
    Скачать бесплатно Смерть в сети
    Смерть в сети скачать торрент
    Смерть в сети смотреть онлайн
    Cкачать фильм Смерть в сети бесплатно
    Смерть в сети скачать торрент в хорошем качестве
    Смерть в сети смотреть онлайн бесплатно в хорошем качестве


    Вы не можете начинать темы
    Вы не можете отвечать на сообщения
    Вы не можете редактировать свои сообщения
    Вы не можете удалять свои сообщения
    Вы не можете голосовать в опросах
    Вы не можете прикреплять файлы к сообщениям
    Вы можете скачивать файлы