Ссылка на приватное зеркало нашего сайта всего за 1$. Внимание количество ограничено!!!

2 сезон

iTunes

1 сезон

1

2 сезон

2 сезон

iTunes

1 сезон

RePack

30

Ultimate

ВАЖНО

ИГРА 18+

pack

RePack

MK11
pack

Забери бонус

RePack

jed

!!Акция!!

Alien_Rage

RePack

fifa19

RePack

Assassins Creed: Odyssey

RePack

NEED FOR SPEED™ PAYBACK

4 сезон

9 сезон

Бесстыжие 9 сезон

Все сериалы

все сериалы на PB.wtf

RePack

FAR CRY 5
  

Ганнибал / Hannibal / Сезон: 2 / Серии 1-13 из 13 (Тим Хантер / Tim Hunter, Майкл Раймер / Michael Rymer, Дэвид Слэйд / David Slade) [2014, США, детектив, криминал, драма, WEBDLRip-]MVO(Sony Sci-Fi) pb.wtf

Ганнибал через торрент pb.wtf

Размер: 6.96 GB | Добавлен: 6 лет 5 мес. назад | Торрент скачан:1244 раза
Скачать  

09-05-2014 02:40 Ганнибал Скачать торрент  

Ганнибал / Hannibal«Как всё начиналось...»
Год выпуска: 2014
Страна: США
Жанр: детектив, криминал, драма
Продолжительность: ~00:42:21(Серия)
Перевод: Профессиональный (многоголосый, закадровый)(Sony Sci-Fi)
Субтитры: Нет
Режиссер: Тим Хантер / Tim Hunter, Майкл Раймер / Michael Rymer, Дэвид Слэйд / David Slade
Сценарий: Брайан Фуллер / Bryan Fuller, Джим Д. Грэй / Jim D. Gray, Kai Wu, Томас Харрис / Thomas Harris, Стив Лайтфут / Steve Lightfoot
Продюсер: Майкл Кесслер / Michael Kessler, Скотт Нимерфро / Scott Nimerfro, Katie O'Connell, Кристоф Рианди / Christophe Riandee, Elisa Roth
Оператор: Джеймс Хокинсон / James Hawkinson, Карим Хуссэйн / Karim Hussain
Композитор: Брайан Райцелл / Brian Reitzell
В ролях:
Мадс Миккельсен (Dr. Hannibal Lecter), Хью Дэнси (Will Graham), Лоренс Фишбёрн (Jack Crawford), Каролин Давернас (Dr. Alana Bloom), Лара Джин Чоростецки (Freddie Lounds), Джиллиан Андерсон (Dr. Bedelia Du Maurier), Эттьенн Парк (Beverly Katz), Скотт Томпсон (Jimmy Price), Аарон Абрамс (Brian Zeller), Кейси Рол (Abigail Hobbs), Владимир Джон Кабрт (Garret Jacob Hobbs), Криста Паттон (Louise Hobbs)
Описание:
Уилл Грэм - одаренный профайлер, который вместе с ФБР разыскивает серийного убийцу. Уникальный способ мышления Грэма дает ему удивительную способность глубоко проникаться чувствами другого человека, даже психопата. Он может понять, что ими движет. Но когда ум преследуемого убийцы оказывается слишком сложным, он прибегает к помощи доктора Лектера, одного из ведущих психиатрических умов в стране.
Рейтинг
kinopoisk.ru: 8.195 (12 834)
imdb.com: 8.50 (58 499)
Качество: WEBDLRip
Формат: AVI
Видео кодек: XviD
Аудио кодек: MP3
Видео: 1497 Кбит/сек, 720*400 (16:9), в 23,976 кадра/сек, MPEG-4 Visual (XviD)
Аудио №1: Русский 128 Кбит/сек, 48,0 КГц, 2 канала, MPEG Audio (MP3)
Аудио №2: Английский 128 Кбит/сек, 48,0 КГц, 2 канала, MPEG Audio (MP3) Раздача ведётся путём добавления новых серийДобалена 13 заключительная серия (28.05.2014)Просьба перекачать торрент файл

Внимание! Раздача ведётся путём добавления новых серий; при каждом добавлении создётся новый торрент. Чтобы начать докачку новой серии, пользователям необходимо сделать следующее:
(1) остановить скачивание,
(2) удалить старый торрент у себя из клиента (старые серии удалять не надо),
(3) скачать новый торрент и запустить его у себя в клиенте вместо старого, при этом указать клиенту путь в старую папку куда и должно происходить скачивание новых серий.
Ваш клиент при этом должен произвести хеширование (проверку) старой папки (если не производит сам - помогите ему сделать это), и будет докачивать только те серии которых у вас ещё нет. Старые серии при этом не удаляются, а продолжают раздаваться!
Eсли вы уже удалили старые серии, то предотвратить повторную закачку старых серий можно, отжав галочку в соответсвующих местах при запуске нового торрента. По возможности, желательно не удалять старые серии как можно дольше чтобы релизёр не столько продолжал раздавать старые серии, а смог сконцентрироваться на новых.

Общее
Полное имя : H:\ТОРРЕНТЫ\ Ганнибал.Sony Sci-Fi\Ганнибал1.avi
Формат : AVI
Формат/Информация : Audio Video Interleave
Размер файла : 546 Мбайт
Продолжительность : 43 м.
Общий поток : 1767 Кбит/сек
Программа кодирования : VirtualDubModRus 1.5.10.2 (build 2542/release)
Библиотека кодирования : VirtualDubMod build 2542/release

Видео
Идентификатор : 0
Формат : MPEG-4 Visual
Профиль формата : Advanced Simple@L5
Параметр BVOP формата : 2
Параметр QPel формата : Нет
Параметр GMC формата : Без точки перехода
Параметр матрицы формата : Default (MPEG)
Идентификатор кодека : XVID
Идентификатор кодека/Подсказка : XviD
Продолжительность : 43 м.
Битрейт : 1497 Кбит/сек
Ширина : 720 пикселей
Высота : 400 пикселей
Соотношение сторон : 16:9
Частота кадров : 23,976 кадра/сек
Цветовое пространство : YUV
Субдискретизация насыщенности : 4:2:0
Битовая глубина : 8 бит
Тип развёртки : Прогрессивная
Метод сжатия : С потерями
Бит/(Пиксели*Кадры) : 0.217
Размер потока : 462 Мбайт (85%)
Библиотека кодирования : XviD 64

Аудио #1
Идентификатор : 1
Формат : MPEG Audio
Версия формата : Version 1
Профиль формата : Layer 3
Режим : Joint stereo
Расширение режима : MS Stereo
Идентификатор кодека : 55
Идентификатор кодека/Подсказка : MP3
Продолжительность : 43 м.
Вид битрейта : Постоянный
Битрейт : 128 Кбит/сек
Каналы : 2 канала
Частота : 48,0 КГц
Метод сжатия : С потерями
Размер потока : 39,5 Мбайт (7%)
Выравнивание : Соединение по промежуткам
Продолжительность промежутка : 42 мс. (1,00 видеокадр)
Время предзагрузки промежутка : 504 мс.
Библиотека кодирования : LAME3.99r
Настройки программы : -m j -V 4 -q 2 -lowpass 17 -b 128

Аудио #2
Идентификатор : 2
Формат : MPEG Audio
Версия формата : Version 1
Профиль формата : Layer 3
Режим : Joint stereo
Расширение режима : MS Stereo
Идентификатор кодека : 55
Идентификатор кодека/Подсказка : MP3
Продолжительность : 43 м.
Вид битрейта : Постоянный
Битрейт : 128 Кбит/сек
Каналы : 2 канала
Частота : 48,0 КГц
Метод сжатия : С потерями
Размер потока : 39,5 Мбайт (7%)
Выравнивание : Соединение по промежуткам
Продолжительность промежутка : 42 мс. (1,00 видеокадр)
Время предзагрузки промежутка : 504 мс.
Библиотека кодирования : LAME3.99r
Настройки программы : -m j -V 4 -q 2 -lowpass 17 -b 128

скриншот   скриншот   скриншот   скриншот   скриншот   скриншот   скриншот   скриншот   скриншот   скриншот  

pb.wtf



Скачать Ганнибал через торрент http://cs540103.vk.me/c608827/v608827651/5bb7/LDiTomFKx8I.jpg Скачать фильм Ганнибал через торрент бесплантно в хорошем качестве Описание: Уилл Грэм - одаренный профайлер, который вместе с ФБР разыскивает серийного убийцу. Уникальный способ мышления Грэма дает ему ... 9.8 10 56
Info! Золотая раздача, скачанное не засчитывается.
Торрент: Зарегистрирован [2014-05-28 11:47] · скачан: 1 244 раз
Статус: √ проверено
Размер: 6.96 GB
Как cкачать? Как скачать Ганнибал через торрент | qTorrent

% Раздел Тема Автор DL S | L
Зарубежные сериалы [ 21.68 GB ] Ганнибал / Hannibal / Сезон: 2 / Серии 1-13 из 13 [2014 WEB-DL 1080]MVO GEKADOL Скачать
1 | 1
Видео для КПК и Смартфонов [ 683 MB ] Ганнибал / Hannibal [1 сезон 1-2 серии из 13] [2013 WEB-DLRip] [MP4 640x] MVO Assassins Creed Скачать
1 | 0


Последний раз редактировалось: GEKADOL (2014-05-28 11:46), всего редактировалось 2 раз(а)

28-11-2019 20:33  

Отключить всю рекламу на сайте

17-05-2014 13:18 Ганнибал Скачать торрент  

Сериал просто супер!pb.wtf



21-05-2014 15:13 Ганнибал Скачать торрент  

сколько сейчас серийpb.wtf



31-05-2014 15:02 Ганнибал Скачать торрент  

спасибо. сериал хорош и перевод отличный сравнивая с другими этот самый лучший - качество на высоте.pb.wtf



13-11-2015 18:13 Ганнибал Скачать торрент  

супер сериалpb.wtf



31-01-2016 17:22 Ганнибал Скачать торрент  

Встаньте плиз на раздачу!!!!!!!!!!!!!!!!!pb.wtf



    Дорогой пользователь! Огромная просьба, поблагодарите релизера, оцените раздачу и оставьте свои комментарий, если Вы скачали Ганнибал через торрент бесплатно! Внесите свою лепту в развитие PiratBit!
    Комментировать посты могут только пользователи прошедшие не сложную регистрацию
    Показать сообщения:    

    Ганнибал через торрент
    Скачать бесплатно Ганнибал
    Ганнибал скачать торрент
    Ганнибал смотреть онлайн
    Cкачать фильм Ганнибал бесплатно
    Ганнибал скачать торрент в хорошем качестве
    Ганнибал смотреть онлайн бесплатно в хорошем качестве


    Вы не можете начинать темы
    Вы не можете отвечать на сообщения
    Вы не можете редактировать свои сообщения
    Вы не можете удалять свои сообщения
    Вы не можете голосовать в опросах
    Вы не можете прикреплять файлы к сообщениям
    Вы можете скачивать файлы