Ссылка на приватное зеркало нашего сайта всего за 1$. Внимание количество ограничено!!!

2 сезон

iTunes

1 сезон

1

iTunes

iTunes

iTunes

1 сезон

RePack

30

ИГРА 18+

pack

ВАЖНО

!!Акция!!

Alien_RageХит недели

RePack

MK11
pack

Забери бонус

RePack

jed

!!Акция!!

Alien_Rage

RePack

fifa19

RePack

Assassins Creed: Odyssey

RePack

NEED FOR SPEED™ PAYBACK

4 сезон

9 сезон

Бесстыжие 9 сезон

Все сериалы

все сериалы на PB.wtf

RePack

FAR CRY 5
  

Oomph! - Des Wahnsinns Fette Beute (Deluxe Edition) 2012 / FLAC (tracks+.cue) / lossless / Industrial pb.wtf

Oomph! - Des Wahnsinns Fette Beute через торрент pb.wtf

Размер: 458 MB | Добавлен: 6 лет 5 мес. назад | Торрент скачан:57 раз
Скачать  

09-05-2014 03:09 Oomph! - Des Wahnsinns Fette Beute Скачать торрент  

Oomph! - Des Wahnsinns Fette Beute (Deluxe Edition)
Страна-производитель диска: Germany
Год Выпуска: 2012
Жанр: Industrial
Издатель (лейбл): Sony Music
Номер по каталогу: 88725405602
Страна: Germany
Продолжительность: 01:01:11
Аудиокодек: FLAC (*.flac)
Тип рипа: tracks+.cue
Битрейт: lossless
Источник: what.cd
Наличие сканов в содержимом раздачи: нет

Доп. информация:

Des Wahnsinns Fette Beute — одиннадцатый студийный альбом немецкой группы Oomph!, выпущенный 18 мая 2012 года. Концертный тур по Европе в поддержку альбома начался 24 мая 2012 года в Москве и завершился 20 октября того же года в Вольфсбурге.

  • 01 – Unzerstorbar (3:41)
  • 02 – Zwei Schritte Vor (4:23)
  • 03 – Such Mich Find Mich (3:31)
  • 04 – Bis Der Spiegel Zerbricht (3:36)
  • 05 – Die Geister Die Ich Rief (3:06)
  • 06 – Bonobo (4:00)
  • 07 – Deine Eltern (4:03)
  • 08 – Kleinstadtboy (4:01)
  • 09 – Regen (4:14)
  • 10 – Kosmonaut (4:01)
  • 11 – Komm Zuruck (3:11)
  • 12 – Aus Meiner Haut (3:09)
  • 13 – Seemannsrose (3:09)
  • 14 – Unendlich (5:16)
  • 15 – Futter Mich (3:38)
  • 16 – Der Tod Ist Nur Ein Herzschlag Entfernt (4:06)

скриншот  


Exact Audio Copy V1.0 beta 3 from 29. August 2011

EAC extraction logfile from 1. June 2012, 18:58

Oomph! / Oomph! - Des Wahnsinns fette Beute

Used drive : TSSTcorpDVDWBD TS-LB23D Adapter: 0 ID: 1

Read mode : Secure
Utilize accurate stream : Yes
Defeat audio cache : Yes
Make use of C2 pointers : No

Read offset correction : 6
Overread into Lead-In and Lead-Out : No
Fill up missing offset samples with silence : Yes
Delete leading and trailing silent blocks : No
Null samples used in CRC calculations : Yes
Used interface : Native Win32 interface for Win NT & 2000
Gap handling : Appended to previous track

Used output format : User Defined Encoder
Selected bitrate : 1024 kBit/s
Quality : High
Add ID3 tag : No
Command line compressor : C:\New_folder\FLAC\bin\flac.exe
Additional command line options : -V -8 -T "Genre=%genre%" -T "Artist=%artist%" -T "Title=%title%" -T "Album=%albumtitle%" -T "Date=%year%" -T "Tracknumber=%tracknr%" -T "Comment=%comment%" %source%

TOC of the extracted CD

Track | Start | Length | Start sector | End sector
---------------------------------------------------------
1 | 0:00.00 | 3:41.06 | 0 | 16580
2 | 3:41.06 | 4:23.07 | 16581 | 36312
3 | 8:04.13 | 3:31.08 | 36313 | 52145
4 | 11:35.21 | 3:36.23 | 52146 | 68368
5 | 15:11.44 | 3:06.71 | 68369 | 82389
6 | 18:18.40 | 4:00.31 | 82390 | 100420
7 | 22:18.71 | 4:03.52 | 100421 | 118697
8 | 26:22.48 | 4:01.45 | 118698 | 136817
9 | 30:24.18 | 4:14.32 | 136818 | 155899
10 | 34:38.50 | 4:01.33 | 155900 | 174007
11 | 38:40.08 | 3:11.40 | 174008 | 188372
12 | 41:51.48 | 3:09.51 | 188373 | 202598
13 | 45:01.24 | 3:09.50 | 202599 | 216823
14 | 48:10.74 | 5:16.18 | 216824 | 240541
15 | 53:27.17 | 3:38.11 | 240542 | 256902
16 | 57:05.28 | 4:06.06 | 256903 | 275358

Track 1

Filename C:\New_folder\01 Unzerstцrbar.wav

Pre-gap length 0:00:02.00

Peak level 99.8 %
Extraction speed 1.9 X
Track quality 99.9 %
Test CRC 4303E453
Copy CRC 4303E453
Track not present in AccurateRip database
Copy OK

Track 2

Filename C:\New_folder\02 Zwei Schritte vor.wav

Pre-gap length 0:00:00.73

Peak level 99.8 %
Extraction speed 2.4 X
Track quality 100.0 %
Test CRC 51DA81C0
Copy CRC 51DA81C0
Track not present in AccurateRip database
Copy OK

Track 3

Filename C:\New_folder\03 Such mich find mich.wav

Pre-gap length 0:00:02.32

Peak level 99.8 %
Extraction speed 2.6 X
Track quality 100.0 %
Test CRC C16C0F1B
Copy CRC C16C0F1B
Track not present in AccurateRip database
Copy OK

Track 4

Filename C:\New_folder\04 Bis der Spiegel zerbricht.wav

Pre-gap length 0:00:01.07

Peak level 99.8 %
Extraction speed 2.7 X
Track quality 100.0 %
Test CRC D90DE4B0
Copy CRC D90DE4B0
Track not present in AccurateRip database
Copy OK

Track 5

Filename C:\New_folder\05 Die Geister die ich rief.wav

Pre-gap length 0:00:00.16

Peak level 99.8 %
Extraction speed 2.8 X
Track quality 100.0 %
Test CRC 3FF2C3A0
Copy CRC 3FF2C3A0
Track not present in AccurateRip database
Copy OK

Track 6

Filename C:\New_folder\06 Bonobo.wav

Pre-gap length 0:00:02.46

Peak level 99.8 %
Extraction speed 3.0 X
Track quality 100.0 %
Test CRC 906D32C9
Copy CRC 906D32C9
Track not present in AccurateRip database
Copy OK

Track 7

Filename C:\New_folder\07 Deine Eltern.wav

Peak level 99.8 %
Extraction speed 2.8 X
Track quality 99.9 %
Test CRC 05F5950C
Copy CRC 05F5950C
Track not present in AccurateRip database
Copy OK

Track 8

Filename C:\New_folder\08 Kleinstadtboy.wav

Peak level 99.8 %
Extraction speed 3.3 X
Track quality 100.0 %
Test CRC 78D69D02
Copy CRC 78D69D02
Track not present in AccurateRip database
Copy OK

Track 9

Filename C:\New_folder\09 Regen.wav

Pre-gap length 0:00:03.02

Peak level 99.8 %
Extraction speed 3.5 X
Track quality 100.0 %
Test CRC 5807E85C
Copy CRC 5807E85C
Track not present in AccurateRip database
Copy OK

Track 10

Filename C:\New_folder\10 Kosmonaut.wav

Pre-gap length 0:00:01.55

Peak level 99.8 %
Extraction speed 3.6 X
Track quality 100.0 %
Test CRC D082CD7A
Copy CRC D082CD7A
Track not present in AccurateRip database
Copy OK

Track 11

Filename C:\New_folder\11 Komm zurьck.wav

Pre-gap length 0:00:00.44

Peak level 99.8 %
Extraction speed 3.1 X
Track quality 99.9 %
Test CRC 615C30F2
Copy CRC 615C30F2
Track not present in AccurateRip database
Copy OK

Track 12

Filename C:\New_folder\12 Aus meiner Haut.wav

Pre-gap length 0:00:01.20

Peak level 99.8 %
Extraction speed 3.7 X
Track quality 100.0 %
Test CRC 9E28AA9D
Copy CRC 9E28AA9D
Track not present in AccurateRip database
Copy OK

Track 13

Filename C:\New_folder\13 Seemannsrose.wav

Pre-gap length 0:00:02.10

Peak level 99.8 %
Extraction speed 3.7 X
Track quality 100.0 %
Test CRC B602A921
Copy CRC B602A921
Track not present in AccurateRip database
Copy OK

Track 14

Filename C:\New_folder\14 Unendlich.wav

Pre-gap length 0:00:00.44

Peak level 99.8 %
Extraction speed 4.2 X
Track quality 100.0 %
Test CRC 70777E42
Copy CRC 70777E42
Track not present in AccurateRip database
Copy OK

Track 15

Filename C:\New_folder\15 Fьtter mich.wav

Peak level 99.8 %
Extraction speed 3.6 X
Track quality 99.9 %
Test CRC 75C24302
Copy CRC 75C24302
Track not present in AccurateRip database
Copy OK

Track 16

Filename C:\New_folder\16 Der Tod ist ein Herzschlag entfernt.wav

Peak level 99.8 %
Extraction speed 4.2 X
Track quality 100.0 %
Test CRC 22CA48EA
Copy CRC 22CA48EA
Track not present in AccurateRip database
Copy OK

None of the tracks are present in the AccurateRip database

No errors occurred

End of status report

==== Log checksum 4A3E4A3F6E9D329A2A8CCB59E1585634C820C87AC59B761822A63B448DBA6239 ====


REM DISCID C80E5710
REM COMMENT "ExactAudioCopy v1.0b3"
CATALOG 0887254056027
PERFORMER "Oomph!"
TITLE "Oomph! - Des Wahnsinns fette Beute"
FILE "01 Unzerstörbar.wav" WAVE
TRACK 01 AUDIO
TITLE "Unzerstörbar"
PERFORMER "Oomph!"
ISRC DEE861200175
INDEX 01 00:00:00
TRACK 02 AUDIO
TITLE "Zwei Schritte vor"
PERFORMER "Oomph!"
ISRC DEE861200173
INDEX 00 03:40:08
FILE "02 Zwei Schritte vor.wav" WAVE
INDEX 01 00:00:00
TRACK 03 AUDIO
TITLE "Such mich find mich"
PERFORMER "Oomph!"
ISRC DEE861200176
INDEX 00 04:20:50
FILE "03 Such mich find mich.wav" WAVE
INDEX 01 00:00:00
TRACK 04 AUDIO
TITLE "Bis der Spiegel zerbricht"
PERFORMER "Oomph!"
ISRC DEE861200177
INDEX 00 03:30:01
FILE "04 Bis der Spiegel zerbricht.wav" WAVE
INDEX 01 00:00:00
TRACK 05 AUDIO
TITLE "Die Geister die ich rief"
PERFORMER "Oomph!"
ISRC DEE861200178
INDEX 00 03:36:07
FILE "05 Die Geister die ich rief.wav" WAVE
INDEX 01 00:00:00
TRACK 06 AUDIO
TITLE "Bonobo"
PERFORMER "Oomph!"
ISRC DEE861200174
INDEX 00 03:04:25
FILE "06 Bonobo.wav" WAVE
INDEX 01 00:00:00
FILE "07 Deine Eltern.wav" WAVE
TRACK 07 AUDIO
TITLE "Deine Eltern"
PERFORMER "Oomph!"
ISRC DEE861200179
INDEX 01 00:00:00
FILE "08 Kleinstadtboy.wav" WAVE
TRACK 08 AUDIO
TITLE "Kleinstadtboy"
PERFORMER "Oomph!"
ISRC DEE861200180
INDEX 01 00:00:00
TRACK 09 AUDIO
TITLE "Regen"
PERFORMER "Oomph!"
ISRC DEE861200181
INDEX 00 03:58:43
FILE "09 Regen.wav" WAVE
INDEX 01 00:00:00
TRACK 10 AUDIO
TITLE "Kosmonaut"
PERFORMER "Oomph!"
ISRC DEE861200182
INDEX 00 04:12:52
FILE "10 Kosmonaut.wav" WAVE
INDEX 01 00:00:00
TRACK 11 AUDIO
TITLE "Komm zurück"
PERFORMER "Oomph!"
ISRC DEE861200183
INDEX 00 04:00:64
FILE "11 Komm zurück.wav" WAVE
INDEX 01 00:00:00
TRACK 12 AUDIO
TITLE "Aus meiner Haut"
PERFORMER "Oomph!"
ISRC DEE861200184
INDEX 00 03:10:20
FILE "12 Aus meiner Haut.wav" WAVE
INDEX 01 00:00:00
TRACK 13 AUDIO
TITLE "Seemannsrose"
PERFORMER "Oomph!"
ISRC DEE861200185
INDEX 00 03:07:41
FILE "13 Seemannsrose.wav" WAVE
INDEX 01 00:00:00
TRACK 14 AUDIO
TITLE "Unendlich"
PERFORMER "Oomph!"
ISRC DEE861200186
INDEX 00 03:09:06
FILE "14 Unendlich.wav" WAVE
INDEX 01 00:00:00
FILE "15 Fütter mich.wav" WAVE
TRACK 15 AUDIO
TITLE "Fütter mich"
PERFORMER "Oomph!"
ISRC DEE861200209
INDEX 01 00:00:00
FILE "16 Der Tod ist ein Herzschlag entfernt.wav" WAVE
TRACK 16 AUDIO
TITLE "Der Tod ist ein Herzschlag entfernt"
PERFORMER "Oomph!"
ISRC DEE861200210
INDEX 01 00:00:00

Приятного прослушивания pb.wtf



Скачать Oomph! - Des Wahnsinns Fette Beute через торрент http://i.imgur.com/vOzQR1x.jpg Скачать фильм Oomph! - Des Wahnsinns Fette Beute через торрент бесплантно в хорошем качестве Трэклист01 – Unzerstorbar (3:41)02 – Zwei Schritte Vor (4:23)03 – Such Mich Find Mich (3:31)04 – Bis Der Spiegel Zerbricht (3:36)05 – Die ... 10 10 3
Info! Золотая раздача, скачанное не засчитывается.
Торрент: Зарегистрирован [2014-05-09 03:09] · скачан: 57 раз
Статус: √ проверено
Размер: 458 MB
Как cкачать? Как скачать Oomph! - Des Wahnsinns Fette Beute через торрент | qTorrent

28-11-2019 20:33  

Отключить всю рекламу на сайте

    Дорогой пользователь! Огромная просьба, поблагодарите релизера, оцените раздачу и оставьте свои комментарий, если Вы скачали Oomph! - Des Wahnsinns Fette Beute через торрент бесплатно! Внесите свою лепту в развитие PiratBit!
    Комментировать посты могут только пользователи прошедшие не сложную регистрацию
    Показать сообщения:    

    Oomph! - Des Wahnsinns Fette Beute через торрент
    Скачать бесплатно Oomph! - Des Wahnsinns Fette Beute
    Oomph! - Des Wahnsinns Fette Beute скачать торрент
    Oomph! - Des Wahnsinns Fette Beute смотреть онлайн
    Cкачать фильм Oomph! - Des Wahnsinns Fette Beute бесплатно
    Oomph! - Des Wahnsinns Fette Beute скачать торрент в хорошем качестве
    Oomph! - Des Wahnsinns Fette Beute смотреть онлайн бесплатно в хорошем качестве


    Вы не можете начинать темы
    Вы не можете отвечать на сообщения
    Вы не можете редактировать свои сообщения
    Вы не можете удалять свои сообщения
    Вы не можете голосовать в опросах
    Вы не можете прикреплять файлы к сообщениям
    Вы можете скачивать файлы