Anonymous, доброй ночи, присоединяйтесь к нам в Telegram!, здесь всегда актуальный адрес сайта, оперативная поддержка и многое другое!

>

5.6

iTunes

7.4

MVO

5.7

MVO

1

7.7

1 сезон

6.8

iTunes

7.3

1 сезон

13

6.7

1 сезон

8.3

RePack

30

ULTIMATE

pack

9.9

Лицензия

ВАЖНО

ИГРА 18+

pack

7.3

RePack

MK11

7.7

RePack

jed

7.8

RePack

fifa19

8.5

RePack

RDR2

RePack

NEED FOR SPEED™ PAYBACK

4 сезон

9 сезон

Бесстыжие 9 сезон

Все сериалы

все сериалы на PB.wtf

RePack

FAR CRY 5

Anonymous, доброй ночи, мы катастрофически не успеваем собрать деньги на оплату серверов, помогите нам пожалуйста 5,10,15р., для нас важна любая помощь . В качестве благодарности мы отключим Вам всю рекламу на сайте (укажите свой ник в строку Ваше имя)!

×
  
Magnet ссылка

Rob Zombie - Venomous Rat Regeneration Vendor 2013 / FLAC (tracks+.cue) / lossless / Industrial / Metal pb.wtf

Rob Zombie - Venomous Rat Regeneration Vendor 2013 через торрент pb.wtf

Размер: 269 MB | Добавлен: 7 лет 5 мес. назад | Торрент скачан:67 раз
Смотреть онлайн Rob Zombie - Venomous Rat Regeneration Vendor 2013 | Скачать    Ребята, помогите собрать деньги на оплату серверов!!!

09-05-2014 03:35 Rob Zombie - Venomous Rat Regeneration Vendor 2013 Скачать торрент  

Rob Zombie - Venomous Rat Regeneration Vendor
Год Выпуска: 2013
Жанр: Industrial / Metal
Страна: USA
Продолжительность: 00:35:20
Аудиокодек: FLAC (*.flac)
Тип рипа: tracks+.cue
Битрейт: lossless
Источник: what.cd
Наличие сканов в содержимом раздачи: нет

Доп. информация:

Venomous Rat Regeneration Vendor — пятый сольный студийный альбом Роба Зомби, издан в 2013 году на лейбле Roadrunner Records.Venomous Rat Regeneration Vendor вышел спустя четыре дня после выхода очередного фильма Роба — «Повелители Салема». Трек-лист альбома был опубликован на страничке Роба Зомби в Твиттере 22 февраля. Это первый альбом, записанный с новым барабанщиком Джинджером Фишом.

  • 01. Teenage Nosferatu Pussy (4:33)
  • 02. Dead City Radio And The New Gods Of Supertown (3:28)
  • 03. Revelation Revolution (3:10)
  • 04. Theme For The Rat Vendor (1:01)
  • 05. Gong Gang Gong De Do Gong De Laga Raga (3:19)
  • 06. Rock And Roll (In A Black Hole) (4:14)
  • 07. Behold, The Pretty Filthy Creatures (2:55)
  • 08. White Trash Freaks (3:12)
  • 09. We’re An American Band (3:29)
  • 10. Lucifer Rising (3:18)
  • 11. The Girl Who Loved The Monsters (3:56)
  • 12. Trade In Your Guns For A Coffin (2:10)

скриншот  


Exact Audio Copy V1.0 beta 3 from 29. August 2011

EAC extraction logfile from 22. April 2013, 11:24

Rob Zombie / Venomous Rat Regeneration Vendor

Used drive : hp DVD-RAM GH82N Adapter: 0 ID: 0

Read mode : Secure
Utilize accurate stream : Yes
Defeat audio cache : Yes
Make use of C2 pointers : No

Read offset correction : 667
Overread into Lead-In and Lead-Out : No
Fill up missing offset samples with silence : Yes
Delete leading and trailing silent blocks : No
Null samples used in CRC calculations : Yes
Used interface : Native Win32 interface for Win NT & 2000
Gap handling : Appended to previous track

Used output format : User Defined Encoder
Selected bitrate : 1024 kBit/s
Quality : High
Add ID3 tag : No
Command line compressor : C:\Program Files (x86)\Exact Audio Copy\Flac\flac.exe
Additional command line options : -8 -V -T "ARTIST=%artist%" -T "TITLE=%title%" -T "ALBUM=%albumtitle%" -T "DATE=%year%" -T "TRACKNUMBER=%tracknr%" -T "GENRE=%genre%" -T "PERFORMER=%albuminterpret%" -T "COMPOSER=%composer%" %haslyrics%--tag-from-file=LYRICS="%lyricsfile%"%haslyrics% -T "ALBUMARTIST=%albumartist%" -T "DISCNUMBER=%cdnumber%" -T "TOTALDISCS=%totalcds%" -T "TOTALTRACKS=%numtracks%" -T "COMMENT=%comment%" %source% -o %dest%

TOC of the extracted CD

Track | Start | Length | Start sector | End sector
---------------------------------------------------------
1 | 0:00.00 | 4:33.54 | 0 | 20528
2 | 4:33.54 | 3:28.01 | 20529 | 36129
3 | 8:01.55 | 3:10.06 | 36130 | 50385
4 | 11:11.61 | 1:01.66 | 50386 | 55026
5 | 12:13.52 | 3:18.74 | 55027 | 69950
6 | 15:32.51 | 4:14.00 | 69951 | 89000
7 | 19:46.51 | 2:55.07 | 89001 | 102132
8 | 22:41.58 | 3:12.02 | 102133 | 116534
9 | 25:53.60 | 3:29.62 | 116535 | 132271
10 | 29:23.47 | 3:18.46 | 132272 | 147167
11 | 32:42.18 | 3:56.53 | 147168 | 164920
12 | 36:38.71 | 2:10.57 | 164921 | 174727

Track 1

Filename F:\EAC Rips\Rob Zombie - Venomous Rat Regeneration Vendor (2013) [FLAC]\01 - Teenage Nosferatu Pussy.wav

Pre-gap length 0:00:02.00

Peak level 97.7 %
Extraction speed 1.9 X
Track quality 100.0 %
Test CRC A6E4A851
Copy CRC A6E4A851
Track not present in AccurateRip database
Copy OK

Track 2

Filename F:\EAC Rips\Rob Zombie - Venomous Rat Regeneration Vendor (2013) [FLAC]\02 - Dead City Radio and The New Gods of Supertown.wav

Peak level 97.7 %
Extraction speed 1.9 X
Track quality 100.0 %
Test CRC E6B5517A
Copy CRC E6B5517A
Track not present in AccurateRip database
Copy OK

Track 3

Filename F:\EAC Rips\Rob Zombie - Venomous Rat Regeneration Vendor (2013) [FLAC]\03 - Revelation Revolution.wav

Peak level 97.7 %
Extraction speed 2.0 X
Track quality 100.0 %
Test CRC C8022411
Copy CRC C8022411
Track not present in AccurateRip database
Copy OK

Track 4

Filename F:\EAC Rips\Rob Zombie - Venomous Rat Regeneration Vendor (2013) [FLAC]\04 - Theme For The Rat Vendor.wav

Peak level 71.7 %
Extraction speed 1.6 X
Track quality 100.0 %
Test CRC 7C94113D
Copy CRC 7C94113D
Track not present in AccurateRip database
Copy OK

Track 5

Filename F:\EAC Rips\Rob Zombie - Venomous Rat Regeneration Vendor (2013) [FLAC]\05 - Ging Gang Gong De Do Gong De Laga Raga.wav

Peak level 97.7 %
Extraction speed 2.3 X
Track quality 100.0 %
Test CRC 5DEE8D3A
Copy CRC 5DEE8D3A
Track not present in AccurateRip database
Copy OK

Track 6

Filename F:\EAC Rips\Rob Zombie - Venomous Rat Regeneration Vendor (2013) [FLAC]\06 - Rock and Roll (In a Black Hole).wav

Peak level 97.7 %
Extraction speed 2.4 X
Track quality 100.0 %
Test CRC F3E6AE1A
Copy CRC F3E6AE1A
Track not present in AccurateRip database
Copy OK

Track 7

Filename F:\EAC Rips\Rob Zombie - Venomous Rat Regeneration Vendor (2013) [FLAC]\07 - Behold, The Pretty Filthy Creatures!.wav

Peak level 97.7 %
Extraction speed 2.4 X
Track quality 100.0 %
Test CRC E9DBCE1C
Copy CRC E9DBCE1C
Track not present in AccurateRip database
Copy OK

Track 8

Filename F:\EAC Rips\Rob Zombie - Venomous Rat Regeneration Vendor (2013) [FLAC]\08 - White Trash Freaks.wav

Peak level 97.7 %
Extraction speed 2.6 X
Track quality 100.0 %
Test CRC ED7DB804
Copy CRC ED7DB804
Track not present in AccurateRip database
Copy OK

Track 9

Filename F:\EAC Rips\Rob Zombie - Venomous Rat Regeneration Vendor (2013) [FLAC]\09 - We´re an American Band.wav

Peak level 97.7 %
Extraction speed 2.3 X
Track quality 99.9 %
Test CRC 04CA509E
Copy CRC 04CA509E
Track not present in AccurateRip database
Copy OK

Track 10

Filename F:\EAC Rips\Rob Zombie - Venomous Rat Regeneration Vendor (2013) [FLAC]\10 - Lucifer Rising.wav

Peak level 97.7 %
Extraction speed 2.8 X
Track quality 100.0 %
Test CRC BF1A16B8
Copy CRC BF1A16B8
Track not present in AccurateRip database
Copy OK

Track 11

Filename F:\EAC Rips\Rob Zombie - Venomous Rat Regeneration Vendor (2013) [FLAC]\11 - The Girl Who Loved The Monsters.wav

Peak level 97.7 %
Extraction speed 2.6 X
Track quality 99.9 %
Test CRC 414EE7E4
Copy CRC 414EE7E4
Track not present in AccurateRip database
Copy OK

Track 12

Filename F:\EAC Rips\Rob Zombie - Venomous Rat Regeneration Vendor (2013) [FLAC]\12 - Trade in Your Guns For a Coffin.wav

Peak level 97.7 %
Extraction speed 2.8 X
Track quality 100.0 %
Test CRC 2D23D198
Copy CRC 2D23D198
Track not present in AccurateRip database
Copy OK

None of the tracks are present in the AccurateRip database

No errors occurred

End of status report

---- CUETools DB Plugin V2.1.3

[CTDB TOCID: g7ugBlgW4byQKbmq5SMT0rkGoCg-] disk not present in database, Submit result: g7ugBlgW4byQKbmq5SMT0rkGoCg- has been uploaded

==== Log checksum 0A5F67D9389B826682B94C63292F3BD7D10FA649418EE85D12B08BE2BDB8E9A4 ====


REM GENRE "Industrial Metal"
REM DATE 2013
REM DISCID A809190C
REM COMMENT "ExactAudioCopy v1.0b3"
CATALOG 0602537277599
PERFORMER "Rob Zombie"
TITLE "Venomous Rat Regeneration Vendor"
FILE "01 - Teenage Nosferatu Pussy.wav" WAVE
TRACK 01 AUDIO
TITLE "Teenage Nosferatu Pussy"
PERFORMER "Rob Zombie"
ISRC USUM71301829
INDEX 01 00:00:00
FILE "02 - Dead City Radio and The New Gods of Supertown.wav" WAVE
TRACK 02 AUDIO
TITLE "Dead City Radio and The New Gods of Supertown"
PERFORMER "Rob Zombie"
ISRC USUM71301463
INDEX 01 00:00:00
FILE "03 - Revelation Revolution.wav" WAVE
TRACK 03 AUDIO
TITLE "Revelation Revolution"
PERFORMER "Rob Zombie"
ISRC USUM71301828
INDEX 01 00:00:00
FILE "04 - Theme For The Rat Vendor.wav" WAVE
TRACK 04 AUDIO
TITLE "Theme For The Rat Vendor"
PERFORMER "Rob Zombie"
ISRC USUM71301830
INDEX 01 00:00:00
FILE "05 - Ging Gang Gong De Do Gong De Laga Raga.wav" WAVE
TRACK 05 AUDIO
TITLE "Ging Gang Gong De Do Gong De Laga Raga"
PERFORMER "Rob Zombie"
ISRC USUM71301832
INDEX 01 00:00:00
FILE "06 - Rock and Roll (In a Black Hole).wav" WAVE
TRACK 06 AUDIO
TITLE "Rock and Roll (In a Black Hole)"
PERFORMER "Rob Zombie"
ISRC USUM71301845
INDEX 01 00:00:00
FILE "07 - Behold, The Pretty Filthy Creatures!.wav" WAVE
TRACK 07 AUDIO
TITLE "Behold, The Pretty Filthy Creatures!"
PERFORMER "Rob Zombie"
ISRC USUM71301834
INDEX 01 00:00:00
FILE "08 - White Trash Freaks.wav" WAVE
TRACK 08 AUDIO
TITLE "White Trash Freaks"
PERFORMER "Rob Zombie"
ISRC USUM71301838
INDEX 01 00:00:00
FILE "09 - Weґre an American Band.wav" WAVE
TRACK 09 AUDIO
TITLE "Weґre an American Band"
PERFORMER "Rob Zombie"
ISRC USUM71301837
INDEX 01 00:00:00
FILE "10 - Lucifer Rising.wav" WAVE
TRACK 10 AUDIO
TITLE "Lucifer Rising"
PERFORMER "Rob Zombie"
ISRC USUM71301839
INDEX 01 00:00:00
FILE "11 - The Girl Who Loved The Monsters.wav" WAVE
TRACK 11 AUDIO
TITLE "The Girl Who Loved The Monsters"
PERFORMER "Rob Zombie"
ISRC USUM71301841
INDEX 01 00:00:00
FILE "12 - Trade in Your Guns For a Coffin.wav" WAVE
TRACK 12 AUDIO
TITLE "Trade in Your Guns For a Coffin"
PERFORMER "Rob Zombie"
ISRC USUM71301843
INDEX 01 00:00:00

Приятного прослушивания pb.wtf



Скачать Rob Zombie - Venomous Rat Regeneration Vendor 2013 через торрент http://i.imgur.com/vOzQR1x.jpg Скачать, смотреть онлайн Rob Zombie - Venomous Rat Regeneration Vendor 2013 бесплантно в хорошем качестве Трэклист Teenage Nosferatu Pussy (4:33) Dead City Radio And The New Gods Of Supertown (3:28) Revelation Revolution (3:10) ... 9.2 10 6
Info! Золотая раздача, скачанное не засчитывается.
Торрент: Зарегистрирован [2014-05-09 03:35] · скачан: 67 раз
Статус: √ проверено
Размер: 269 MB
Как cкачать? Как скачать Rob Zombie - Venomous Rat Regeneration Vendor 2013 через торрент | UTorrent

28-11-2019 20:33  

Отключить всю рекламу на сайте

    Дорогой пользователь! Огромная просьба, поблагодарите релизера, оцените раздачу и оставьте свои комментарий, если Вы скачали Rob Zombie - Venomous Rat Regeneration Vendor 2013 через торрент бесплатно!
    Комментировать посты могут только пользователи прошедшие не сложную регистрацию
    Показать сообщения:    

    Rob Zombie - Venomous Rat Regeneration Vendor 2013 через торрент
    Скачать бесплатно Rob Zombie - Venomous Rat Regeneration Vendor 2013
    Rob Zombie - Venomous Rat Regeneration Vendor 2013 скачать торрент
    Rob Zombie - Venomous Rat Regeneration Vendor 2013 смотреть онлайн
    Cкачать фильм Rob Zombie - Venomous Rat Regeneration Vendor 2013 бесплатно
    Rob Zombie - Venomous Rat Regeneration Vendor 2013 скачать торрент в хорошем качестве
    Rob Zombie - Venomous Rat Regeneration Vendor 2013 смотреть онлайн бесплатно в хорошем качестве


    Вы не можете начинать темы
    Вы не можете отвечать на сообщения
    Вы не можете редактировать свои сообщения
    Вы не можете удалять свои сообщения
    Вы не можете голосовать в опросах
    Вы не можете прикреплять файлы к сообщениям
    Вы можете скачивать файлы