Ссылка на приватное зеркало всего за 1$. Внимание количество ограничено!!!

iTunes

iTunes

iTunes

1

iTunes

iTunes

iTunes

iTunes

iTunes

30
pack

$ от Little Big

ВАЖНО

!!Акция!!

Alien_RageХит недели

RePack

Resident Evil 21

ИГРА 18+

pack

RePack

jed

!!Акция!!

Alien_Rage

RePack

fifa19

RePack

Assassins Creed: Odyssey

RePack

NEED FOR SPEED™ PAYBACK

4 сезон

9 сезон

Бесстыжие 9 сезон

Все сериалы

все сериалы на PB.wtf

RePack

FAR CRY 5
  

Менталист / The Mentalist / 6 сезон / 1-22 серии из 22 (2013-2014) WEB-DLRip / BaibaKo pb.wtf

Менталист через торрент pb.wtf

Размер: 11.63 GB | Добавлен: 6 лет 1 мес. назад | Торрент скачан:754 раза
Скачать  

09-05-2014 03:57 Менталист Скачать торрент  

Менталист / The Mentalist
«Он смотрит сквозь ложь»
Год выпуска: 2013-2014
Страна: США
Жанр: триллер, драма, криминал, детектив
Продолжительность: ~00:43:00 (Серия)
Перевод: Профессиональный (многоголосый, закадровый)(BaibaKo)
Субтитры: Нет

В ролях:
Робин Танни (Teresa Lisbon), Тим Кенг (Kimball Cho), Саймон Бейкер (Patrick Jane), Аманда Риджетти (Grace Van Pelt), Овайн Йомэн (Wayne Rigsby), Онжаню Эллис (Madeleine Hightower), Майкл Гэстон (Gale Bertram), Грегори Итцин (Virgil Minelli), Джон Трой Донован (CBI Ron), Прюитт Тэйлор Винс (J.J. LaRoche), Рокмонд Данбар (Dennis Abbott), Эмили Суоллоу (Kim Fischer)
Описание:
Патрик Джейн - детектив и независимый консультант из Калифорнийского Бюро Расследований (КБР), он использует свои отточенные, как лезвие, навыки наблюдения для раскрытия тяжких преступлений. В самом Бюро Джейн известен за частые нарушения протокола, а также за его звездное прошлое: он работал медиумом, однако теперь сам признает, что симулировал паранормальные способности...
Рейтинг
kinopoisk.ru: 8.096 (18 497)
imdb.com: 8.20 (95 229)
Качество: WEB-DLRip
Формат: AVI
Видео кодек: XviD
Аудио кодек: AC3
Видео: 1452 Кбит/сек, 720*400 (16:9), в 23,976 кадра/сек, MPEG-4 Visual (XviD)
Аудио: 384 Кбит/сек, 48,0 КГц, 16 бит, 6 каналов, AC-3 Раздача ведётся путём добавления новых серийДобалена 22 заключительная серия (26.05.2014)Просьба перекачать торрент файл

Внимание! Раздача ведётся путём добавления новых серий; при каждом добавлении создётся новый торрент. Чтобы начать докачку новой серии, пользователям необходимо сделать следующее:
(1) остановить скачивание,
(2) удалить старый торрент у себя из клиента (старые серии удалять не надо),
(3) скачать новый торрент и запустить его у себя в клиенте вместо старого, при этом указать клиенту путь в старую папку куда и должно происходить скачивание новых серий.
Ваш клиент при этом должен произвести хеширование (проверку) старой папки (если не производит сам - помогите ему сделать это), и будет докачивать только те серии которых у вас ещё нет. Старые серии при этом не удаляются, а продолжают раздаваться!
Eсли вы уже удалили старые серии, то предотвратить повторную закачку старых серий можно, отжав галочку в соответсвующих местах при запуске нового торрента. По возможности, желательно не удалять старые серии как можно дольше чтобы релизёр не столько продолжал раздавать старые серии, а смог сконцентрироваться на новых.

Общее
Полное имя : H:\ТОРРЕНТЫ\Менталист (6 сезон)\Менталист (6 сезон 01 серия) 2013 ).avi
Формат : AVI
Формат/Информация : Audio Video Interleave
Размер файла : 551 Мбайт
Продолжительность : 41 м.
Общий поток : 1845 Кбит/сек
Программа кодирования : VirtualDubMod 1.5.10.2 (build 2540/release)
Библиотека кодирования : VirtualDubMod build 2540/release

Видео
Идентификатор : 0
Формат : MPEG-4 Visual
Профиль формата : Advanced Simple@L5
Параметр BVOP формата : 1
Параметр QPel формата : Нет
Параметр GMC формата : Без точки перехода
Параметр матрицы формата : Default (MPEG)
Идентификатор кодека : XVID
Идентификатор кодека/Подсказка : XviD
Продолжительность : 41 м.
Битрейт : 1452 Кбит/сек
Ширина : 720 пикселей
Высота : 400 пикселей
Соотношение сторон : 16:9
Частота кадров : 23,976 кадра/сек
Цветовое пространство : YUV
Субдискретизация насыщенности : 4:2:0
Битовая глубина : 8 бит
Тип развёртки : Прогрессивная
Метод сжатия : С потерями
Бит/(Пиксели*Кадры) : 0.210
Размер потока : 434 Мбайт (79%)
Библиотека кодирования : XviD 1.2.0.dev47 (UTC 2006-11-01)

Аудио
Идентификатор : 1
Формат : AC-3
Формат/Информация : Audio Coding 3
Расширение режима : CM (complete main)
Параметр Endianness формата : Big
Идентификатор кодека : 2000
Продолжительность : 41 м.
Вид битрейта : Постоянный
Битрейт : 384 Кбит/сек
Каналы : 6 каналов
Расположение каналов : Front: L C R, Side: L R, LFE
Частота : 48,0 КГц
Битовая глубина : 16 бит
Метод сжатия : С потерями
Размер потока : 115 Мбайт (21%)
Выравнивание : Разделение по промежуткам
Продолжительность промежутка : 42 мс. (1,00 видеокадр)
Время предзагрузки промежутка : 500 мс.

скриншот   скриншот   скриншот   скриншот   скриншот   скриншот   скриншот   скриншот   скриншот   скриншот  

pb.wtf



Скачать Менталист через торрент http://pic.kartinco.top/images/6/wrsz9.jpg Скачать фильм Менталист через торрент бесплантно в хорошем качестве Описание:Патрик Джейн - детектив и независимый консультант из Калифорнийского Бюро Расследований (КБР), он использует свои отточенные, как ... 9.9 10 51
Info! Золотая раздача, скачанное не засчитывается.
Торрент: Зарегистрирован [2014-05-26 03:32] · скачан: 754 раз
Статус: √ проверено
Размер: 11.63 GB
Как cкачать? Как скачать Менталист через торрент | qTorrent

28-11-2019 20:33  

Отключить всю рекламу на сайте

    Дорогой пользователь! Огромная просьба, поблагодарите релизера, оцените раздачу и оставьте свои комментарий, если Вы скачали Менталист через торрент бесплатно! Внесите свою лепту в развитие PiratBit!
    Комментировать посты могут только пользователи прошедшие не сложную регистрацию
    Показать сообщения:    

    Менталист через торрент
    Скачать бесплатно Менталист
    Менталист скачать торрент
    Менталист смотреть онлайн
    Cкачать фильм Менталист бесплатно
    Менталист скачать торрент в хорошем качестве
    Менталист смотреть онлайн бесплатно в хорошем качестве


    Вы не можете начинать темы
    Вы не можете отвечать на сообщения
    Вы не можете редактировать свои сообщения
    Вы не можете удалять свои сообщения
    Вы не можете голосовать в опросах
    Вы не можете прикреплять файлы к сообщениям
    Вы можете скачивать файлы