Anonymous, добрый вечер, присоединяйтесь к нам в Telegram!, здесь всегда актуальный адрес сайта, оперативная поддержка и многое другое!

>

5.6

iTunes

7.4

MVO

5.7

MVO

1

7.7

1 сезон

6.8

iTunes

7.3

1 сезон

13

6.7

1 сезон

8.3

RePack

30

ULTIMATE

pack

9.9

Лицензия

ВАЖНО

ИГРА 18+

pack

7.3

RePack

MK11

7.7

RePack

jed

7.8

RePack

fifa19

8.5

RePack

RDR2

RePack

NEED FOR SPEED™ PAYBACK

4 сезон

9 сезон

Бесстыжие 9 сезон

Все сериалы

все сериалы на PB.wtf

RePack

FAR CRY 5

Anonymous, добрый вечер, мы катастрофически не успеваем собрать деньги на оплату серверов, помогите нам пожалуйста 5,10,15р., для нас важна любая помощь . В качестве благодарности мы отключим Вам всю рекламу на сайте (укажите свой ник в строку Ваше имя)!

×
  
Magnet ссылка

Marilyn Manson - Born Villain 2012 / FLAC (tracks+.cue) / lossless / Industrial / Alternative / Rock pb.wtf

Marilyn Manson - Born Villain 2012 через торрент pb.wtf

Размер: 427 MB | Добавлен: 7 лет 5 мес. назад | Торрент скачан:21 раз
Смотреть онлайн Marilyn Manson - Born Villain 2012 | Скачать    Ребята, помогите собрать деньги на оплату серверов!!!

09-05-2014 05:48 Marilyn Manson - Born Villain 2012 Скачать торрент  

Marilyn Manson - Born Villain
Год Выпуска: 2012
Жанр: Industrial / Alternative / Rock
Издатель (лейбл): Cooking Vinyl
Страна: USA
Продолжительность: 01:03:25
Аудиокодек: FLAC (*.flac)
Тип рипа: tracks+.cue
Битрейт: lossless
Источник: what.cd
Наличие сканов в содержимом раздачи: нет

Доп. информация:

Born Villain – восьмой студийный альбом американской рок-группы «Marilyn Manson». Впервые поступил в продажу 25 апреля 2012 года в Японии, по всему миру продажи начались 1 мая 2012 года. «Born Villain» это первый альбом, выпущенный под личным лейблом Мэрилина Мэнсона «Hell, etc.», который во многом напоминает лейбл «Nothing Records», под которым первые 10 лет выпускались записи группы. «Cooking Vinyl» является родительским лейблом для «Hell, etc». Студия, на которой был записан альбом, размещена в бывшем доме Билли Зейна, и шутливо упоминается на обложке диска как «Zane-a-Due», игра слов с именем Xanadu (Занаду). «Born Villain» стал первой записью группы «Marilyn Manson» с тех пор, как их контракт с лейблом «Interscope Records» был расторгнут в конце 2009 года. Группа начала работу над новым альбомом еще во время тура в поддержку альбома «The High End of Low» в 2009 году, который Мэнсон описывал как более романтичную, но самоуничижительную лирику, сопровождаемую элементами suicide death metal.

  • 01. Hey, Cruel World... (3:45)
  • 02. No Reflection (4:37)
  • 03. Pistol Whipped (4:11)
  • 04. Overneath the Path of Misery (5:19)
  • 05. Slo-Mo-Tion (4:25)
  • 06. The Gardener (4:40)
  • 07. The Flowers of Evil (5:20)
  • 08. Children of Cain (5:18)
  • 09. Disengaged (3:26)
  • 10. Lay Down Your Goddamn Arms (4:14)
  • 11. Murderers Are Getting Prettier Every Day (4:18)
  • 12. Born Villain (5:27)
  • 13. Breaking the Same Old Ground (4:28)
  • 14. You're So Vain (featuring Johnny Depp) (4:03)

скриншот  


Exact Audio Copy V1.0 beta 3 from 29. August 2011

EAC extraction logfile from 27. April 2012, 17:19

Marilyn Manson / Born Villain

Used drive : PLEXTOR DVDR PX-L890SA Adapter: 1 ID: 0

Read mode : Secure
Utilize accurate stream : Yes
Defeat audio cache : Yes
Make use of C2 pointers : No

Read offset correction : 6
Overread into Lead-In and Lead-Out : No
Fill up missing offset samples with silence : Yes
Delete leading and trailing silent blocks : No
Null samples used in CRC calculations : Yes
Used interface : Native Win32 interface for Win NT & 2000
Gap handling : Appended to previous track

Used output format : User Defined Encoder
Selected bitrate : 320 kBit/s
Quality : High
Add ID3 tag : No
Command line compressor : C:\Program Files (x86)\Exact Audio Copy\Flac\flac.exe
Additional command line options : -8 -V -T "ARTIST=%artist%" -T "TITLE=%title%" -T "ALBUM=%albumtitle%" -T "DATE=%year%" -T "TRACKNUMBER=%tracknr%" -T "GENRE=%genre%" -T "PERFORMER=%albuminterpret%" -T "COMPOSER=%composer%" %haslyrics%--tag-from-file=LYRICS="%lyricsfile%"%haslyrics% -T "ALBUMARTIST=%albumartist%" -T "DISCNUMBER=%cdnumber%" -T "TOTALDISCS=%totalcds%" -T "TOTALTRACKS=%numtracks%" -T "COMMENT=%comment%" %source% -o %dest%

TOC of the extracted CD

Track | Start | Length | Start sector | End sector
---------------------------------------------------------
1 | 0:00.00 | 3:44.55 | 0 | 16854
2 | 3:44.55 | 4:36.33 | 16855 | 37587
3 | 8:21.13 | 4:10.45 | 37588 | 56382
4 | 12:31.58 | 5:18.55 | 56383 | 80287
5 | 17:50.38 | 4:24.34 | 80288 | 100121
6 | 22:14.72 | 4:39.26 | 100122 | 121072
7 | 26:54.23 | 5:19.47 | 121073 | 145044
8 | 32:13.70 | 5:17.40 | 145045 | 168859
9 | 37:31.35 | 3:25.31 | 168860 | 184265
10 | 40:56.66 | 4:13.65 | 184266 | 203305
11 | 45:10.56 | 4:18.44 | 203306 | 222699
12 | 49:29.25 | 5:26.34 | 222700 | 247183
13 | 54:55.59 | 4:27.25 | 247184 | 267233
14 | 59:23.09 | 4:02.15 | 267234 | 285398

Track 1

Filename T:\Music\Marilyn Manson - Born Villain (2012) - FLAC\01 - Hey, Cruel World....wav

Pre-gap length 0:00:02.00

Peak level 99.8 %
Extraction speed 2.7 X
Track quality 99.9 %
Test CRC D39B8EF0
Copy CRC D39B8EF0
Track not present in AccurateRip database
Copy OK

Track 2

Filename T:\Music\Marilyn Manson - Born Villain (2012) - FLAC\02 - No Reflection.wav

Peak level 96.6 %
Extraction speed 3.8 X
Track quality 100.0 %
Test CRC 4C9E191A
Copy CRC 4C9E191A
Track not present in AccurateRip database
Copy OK

Track 3

Filename T:\Music\Marilyn Manson - Born Villain (2012) - FLAC\03 - Pistol Whipped.wav

Peak level 99.8 %
Extraction speed 4.2 X
Track quality 100.0 %
Test CRC 2958C35C
Copy CRC 2958C35C
Track not present in AccurateRip database
Copy OK

Track 4

Filename T:\Music\Marilyn Manson - Born Villain (2012) - FLAC\04 - Overneath the Path of Misery.wav

Peak level 99.8 %
Extraction speed 3.9 X
Track quality 99.9 %
Test CRC 8CB2DF08
Copy CRC 8CB2DF08
Track not present in AccurateRip database
Copy OK

Track 5

Filename T:\Music\Marilyn Manson - Born Villain (2012) - FLAC\05 - Slo-mo-tion.wav

Peak level 99.8 %
Extraction speed 4.9 X
Track quality 100.0 %
Test CRC 72EB973A
Copy CRC 72EB973A
Track not present in AccurateRip database
Copy OK

Track 6

Filename T:\Music\Marilyn Manson - Born Villain (2012) - FLAC\06 - The Gardener.wav

Peak level 99.8 %
Extraction speed 5.2 X
Track quality 100.0 %
Test CRC 422FBC12
Copy CRC 422FBC12
Track not present in AccurateRip database
Copy OK

Track 7

Filename T:\Music\Marilyn Manson - Born Villain (2012) - FLAC\07 - The Flowers of Evil.wav

Peak level 99.8 %
Extraction speed 5.6 X
Track quality 100.0 %
Test CRC 9FA896A0
Copy CRC 9FA896A0
Track not present in AccurateRip database
Copy OK

Track 8

Filename T:\Music\Marilyn Manson - Born Villain (2012) - FLAC\08 - Children of Cain.wav

Peak level 99.8 %
Extraction speed 5.9 X
Track quality 100.0 %
Test CRC A81A56E9
Copy CRC A81A56E9
Track not present in AccurateRip database
Copy OK

Track 9

Filename T:\Music\Marilyn Manson - Born Villain (2012) - FLAC\09 - Disengaged.wav

Peak level 96.6 %
Extraction speed 5.8 X
Track quality 100.0 %
Test CRC 1B2592EF
Copy CRC 1B2592EF
Track not present in AccurateRip database
Copy OK

Track 10

Filename T:\Music\Marilyn Manson - Born Villain (2012) - FLAC\10 - Lay Down Your Goddamn Arms.wav

Peak level 99.8 %
Extraction speed 6.2 X
Track quality 100.0 %
Test CRC E7336013
Copy CRC E7336013
Track not present in AccurateRip database
Copy OK

Track 11

Filename T:\Music\Marilyn Manson - Born Villain (2012) - FLAC\11 - Murderers Are Getting Prettier Every Day.wav

Peak level 99.8 %
Extraction speed 6.4 X
Track quality 100.0 %
Test CRC 71FEB0BA
Copy CRC 71FEB0BA
Track not present in AccurateRip database
Copy OK

Track 12

Filename T:\Music\Marilyn Manson - Born Villain (2012) - FLAC\12 - Born Villain.wav

Peak level 99.8 %
Extraction speed 6.9 X
Track quality 100.0 %
Test CRC 7F18BDC3
Copy CRC 7F18BDC3
Track not present in AccurateRip database
Copy OK

Track 13

Filename T:\Music\Marilyn Manson - Born Villain (2012) - FLAC\13 - Breaking the Same Old Ground.wav

Peak level 99.8 %
Extraction speed 6.9 X
Track quality 100.0 %
Test CRC D5F223F6
Copy CRC D5F223F6
Track not present in AccurateRip database
Copy OK

Track 14

Filename T:\Music\Marilyn Manson - Born Villain (2012) - FLAC\14 - You're So Vain (Featuring Johnny Depp) (Bonus Track).wav

Peak level 96.6 %
Extraction speed 7.1 X
Track quality 100.0 %
Test CRC 5425607B
Copy CRC 5425607B
Track not present in AccurateRip database
Copy OK

None of the tracks are present in the AccurateRip database

No errors occurred

End of status report

==== Log checksum 977B8D3109858DBA1A7AD18B5F1EF5D3782DC0793E6B1D14AFCBBDAA76804921 ====


REM GENRE "Alternative Metal"
REM DATE 2012
REM DISCID C00EDD0E
REM COMMENT "ExactAudioCopy v1.0b3"
CATALOG 0711297495423
PERFORMER "Marilyn Manson"
TITLE "Born Villain"
FILE "01 - Hey, Cruel World....wav" WAVE
TRACK 01 AUDIO
TITLE "Hey, Cruel World..."
PERFORMER "Marilyn Manson"
ISRC GBCEJ1200117
INDEX 01 00:00:00
FILE "02 - No Reflection.wav" WAVE
TRACK 02 AUDIO
TITLE "No Reflection"
PERFORMER "Marilyn Manson"
ISRC GBCEJ1200135
INDEX 01 00:00:00
FILE "03 - Pistol Whipped.wav" WAVE
TRACK 03 AUDIO
TITLE "Pistol Whipped"
PERFORMER "Marilyn Manson"
ISRC GBCEJ1200118
INDEX 01 00:00:00
FILE "04 - Overneath the Path of Misery.wav" WAVE
TRACK 04 AUDIO
TITLE "Overneath the Path of Misery"
PERFORMER "Marilyn Manson"
ISRC GBCEJ1200119
INDEX 01 00:00:00
FILE "05 - Slo-mo-tion.wav" WAVE
TRACK 05 AUDIO
TITLE "Slo-mo-tion"
PERFORMER "Marilyn Manson"
ISRC GBCEJ1200120
INDEX 01 00:00:00
FILE "06 - The Gardener.wav" WAVE
TRACK 06 AUDIO
TITLE "The Gardener"
PERFORMER "Marilyn Manson"
ISRC GBCEJ1200121
INDEX 01 00:00:00
FILE "07 - The Flowers of Evil.wav" WAVE
TRACK 07 AUDIO
TITLE "The Flowers of Evil"
PERFORMER "Marilyn Manson"
ISRC GBCEJ1200122
INDEX 01 00:00:00
FILE "08 - Children of Cain.wav" WAVE
TRACK 08 AUDIO
TITLE "Children of Cain"
PERFORMER "Marilyn Manson"
ISRC GBCEJ1200123
INDEX 01 00:00:00
FILE "09 - Disengaged.wav" WAVE
TRACK 09 AUDIO
TITLE "Disengaged"
PERFORMER "Marilyn Manson"
ISRC GBCEJ1200124
INDEX 01 00:00:00
FILE "10 - Lay Down Your Goddamn Arms.wav" WAVE
TRACK 10 AUDIO
TITLE "Lay Down Your Goddamn Arms"
PERFORMER "Marilyn Manson"
ISRC GBCEJ1200125
INDEX 01 00:00:00
FILE "11 - Murderers Are Getting Prettier Every Day.wav" WAVE
TRACK 11 AUDIO
TITLE "Murderers Are Getting Prettier Every Day"
PERFORMER "Marilyn Manson"
ISRC GBCEJ1200126
INDEX 01 00:00:00
FILE "12 - Born Villain.wav" WAVE
TRACK 12 AUDIO
TITLE "Born Villain"
PERFORMER "Marilyn Manson"
ISRC GBCEJ1200127
INDEX 01 00:00:00
FILE "13 - Breaking the Same Old Ground.wav" WAVE
TRACK 13 AUDIO
TITLE "Breaking the Same Old Ground"
PERFORMER "Marilyn Manson"
ISRC GBCEJ1200128
INDEX 01 00:00:00
FILE "14 - You're So Vain (Featuring Johnny Depp) (Bonus Track).wav" WAVE
TRACK 14 AUDIO
TITLE "You're So Vain (Featuring Johnny Depp) (Bonus Track)"
PERFORMER "Marilyn Manson"
ISRC GBCEJ1200129
INDEX 01 00:00:00

Приятного прослушивания pb.wtf



Скачать Marilyn Manson - Born Villain 2012 через торрент http://i.imgur.com/vOzQR1x.jpg Скачать, смотреть онлайн Marilyn Manson - Born Villain 2012 бесплантно в хорошем качестве Трэклист Hey, Cruel World... (3:45) No Reflection (4:37) Pistol Whipped (4:11) Overneath the Path of Misery (5:19) ... 10 10 6
Info! Золотая раздача, скачанное не засчитывается.
Торрент: Зарегистрирован [2014-05-09 05:48] · скачан: 21 раз
Статус: √ проверено
Размер: 427 MB
Как cкачать? Как скачать Marilyn Manson - Born Villain 2012 через торрент | UTorrent

28-11-2019 20:33  

Отключить всю рекламу на сайте

    Дорогой пользователь! Огромная просьба, поблагодарите релизера, оцените раздачу и оставьте свои комментарий, если Вы скачали Marilyn Manson - Born Villain 2012 через торрент бесплатно!
    Комментировать посты могут только пользователи прошедшие не сложную регистрацию
    Показать сообщения:    

    Marilyn Manson - Born Villain 2012 через торрент
    Скачать бесплатно Marilyn Manson - Born Villain 2012
    Marilyn Manson - Born Villain 2012 скачать торрент
    Marilyn Manson - Born Villain 2012 смотреть онлайн
    Cкачать фильм Marilyn Manson - Born Villain 2012 бесплатно
    Marilyn Manson - Born Villain 2012 скачать торрент в хорошем качестве
    Marilyn Manson - Born Villain 2012 смотреть онлайн бесплатно в хорошем качестве


    Вы не можете начинать темы
    Вы не можете отвечать на сообщения
    Вы не можете редактировать свои сообщения
    Вы не можете удалять свои сообщения
    Вы не можете голосовать в опросах
    Вы не можете прикреплять файлы к сообщениям
    Вы можете скачивать файлы