новый адрес пиратбит piratbit
Мега распродажа FORZA HORIZON 4 ULTIMATE+ВСЕ DLC+ОНЛАЙН всего за 499р. 349 руб. (супер цена). Внимание количество ограничено!!!

iTunes

1+1

iTunes

мы

iTunes

1

iTunes

Чернобыль

iTunes

Ральф против интернета

Лицензия

ПШазам

Лицензия

Игра престолов

Лицензия

30
pack

ВАЖНО

!!Акция!!

Alien_RageХит недели

RePack

Resident Evil 21

ИГРА 18+

pack

RePack

Metro:Exodus

!!Акция!!

Alien_Rage

RePack

fifa19

RePack

Assassins Creed: Odyssey

RePack

NEED FOR SPEED™ PAYBACK

3 сезон

9 сезон

Бесстыжие 9 сезон

Все сериалы

все сериалы на PB.wtf

RePack

FAR CRY 5
Ребята, катастрофически не хватает 1900р. для оплаты серверов за Октябрь (всвязи с блокировками трафик упал в 3 раза), 1-2р., выручайте.
  

Они сражались за Родину (Сергей Бондарчук) [Полная версия, 1975, СССР, Военный, драма, DVDRip] pb.wtf

Они сражались за Родину через торрент pb.wtf

Раздают: 1 [ 0 KB/s ]
Размер: 2.17 GB | Добавлен: 5 лет 6 мес. назад | Торрент скачан:846 раз
Скачать  

09-05-2014 08:02 Они сражались за Родину Скачать торрент  

Они сражались за Родину
Год выпуска: 1975
Страна: СССР
Жанр: Военный, драма
Продолжительность: 01:18:06 + 01:12:47
Перевод: Оригинал
Субтитры: Нет
Режиссер: Сергей Бондарчук

В ролях: Василий Шукшин (озвучание - Игорь Ефимов), Вячеслав Тихонов, Сергей Бондарчук, Георгий Бурков, Юрий Никулин, Иван Лапиков, Николай Губенко, Андрей Ростоцкий, Николай Волков, Николай Шутько, Евгений Самойлов, Нонна Мордюкова, Иннокентий Смоктуновский, Ангелина Степанова, Ирина Скобцева, Татьяна Божок, Лидия Федосеева-Шукшина (озвучание - Наталья Гундарева), Даниил Ильченко, Алексей Ванин, Николай Горлов, Геннадий Сафронов, Борис Никифоров, Анатолий Переверзев, Виталий Леонов, Михаил Чигарев, Станислав Бородокин, Леонид Трутнев, Пётр Меркурьев, Алексей Коняшин, Владимир Мышкин, Юнус Юсупов, Хашим Рахимов, Ермахмад Аралев, Александр Безыментов, Игорь Кузнецов, Виктор Волков, Коля Ефремов, Андрей Попов (текст за кадром)

Описание:

Июль 1942 года. На подступах к Сталинграду обескровленные, измотанные советские войска ведут тяжёлые оборонительные бои, неся огромные потери… Фильм рассказывает о подвиге рядовых солдат, любви к родной земле, об истинной цене победы...


Качество видео: DVDRip
Формат видео: AVI
Видеокодек: XviD
Аудиокодек: AC3
Видео (1 серия): MPEG4, XviD, 656x512 (1.281), 25.000 fps, 1 854 Kbps (0.221 bit/pixel)
Видео (2 серия): MPEG4, XviD, 656x512 (1.281), 25.000 fps, 1 860 Kbps (0.221 bit/pixel)
Аудио (1 серия): AC-3, 48.0 KHz, 2 ch, 192 Kbps, CBR
Аудио (2 серия): AC-3, 48.0 KHz, 2 ch, 192 Kbps, CBR

Сценарий: Сергей Бондарчук, Михаил Шолохов
Оператор: Вадим Юсов
Художники: Феликс Ясюкевич, Надежда Бузина
Композитор: Вячеслав Овчинников

General
Полное имя : D:\Video\Oni.srajalis.za.Rodinu.1975\01.Oni.srajalis.za.Rodinu.avi
Формат : AVI
Формат/Информация : Audio Video Interleave
Размер файла : 1.12 GiB
Продолжительность : 1h 18mn
Общий поток : 2 056 Kbps
Режиссёр : zim2001
Программа кодирования : VirtualDubMod 1.5.10.2 (build 2540/release)

Video
Идентификатор : 0
Формат : MPEG-4 Visual
Профиль формата : Advanced Simple@L5
Параметр BVOP формата : 2
Параметр QPel формата : No
Параметр GMC формата : No warppoints
Параметр матрицы формата : Custom
Идентификатор кодека : XVID
Идентификатор кодека/Подсказка : XviD
Продолжительность : 1h 18mn
Битрейт : 1 854 Kbps
Ширина : 656 pixels
Высота : 512 pixels
Соотношение сторон : 1.281
Частота кадров : 25.000 fps
Цветовое пространство : YUV
Субдискретизация насыщенности : 4:2:0
Битовая глубина : 8 bits
Тип развёртки : Progressive
Метод сжатия : Lossy
Бит/(Пиксели*Кадры) : 0.221
Размер потока : 1.01 GiB (90%)
Библиотека кодирования : XviD 1.2.1 (UTC 2008-12-04)

Audio
Идентификатор : 1
Формат : AC-3
Формат/Информация : Audio Coding 3
Расширение режима : CM (complete main)
Параметр Endianness формата : Big
Идентификатор кодека : 2000
Продолжительность : 1h 18mn
Вид битрейта : Constant
Битрейт : 192 Kbps
Каналы : 2 channels
Расположение каналов : Front: L R
Частота : 48.0 KHz
Битовая глубина : 16 bits
Метод сжатия : Lossy
Размер потока : 107 MiB (9%)
Выравнивание : Split accross interleaves
Продолжительность промежутка : 40 ms (1.00 video frame)
Время предзагрузки промежутка : 500 ms


General
Полное имя : D:\Video\Oni.srajalis.za.Rodinu.1975\02.Oni.srajalis.za.Rodinu.avi
Формат : AVI
Формат/Информация : Audio Video Interleave
Размер файла : 1.05 GiB
Продолжительность : 1h 12mn
Общий поток : 2 061 Kbps
Режиссёр : zim2001
Программа кодирования : VirtualDubMod 1.5.10.2 (build 2540/release)

Video
Идентификатор : 0
Формат : MPEG-4 Visual
Профиль формата : Advanced Simple@L5
Параметр BVOP формата : 2
Параметр QPel формата : No
Параметр GMC формата : No warppoints
Параметр матрицы формата : Custom
Идентификатор кодека : XVID
Идентификатор кодека/Подсказка : XviD
Продолжительность : 1h 12mn
Битрейт : 1 860 Kbps
Ширина : 656 pixels
Высота : 512 pixels
Соотношение сторон : 1.281
Частота кадров : 25.000 fps
Цветовое пространство : YUV
Субдискретизация насыщенности : 4:2:0
Битовая глубина : 8 bits
Тип развёртки : Progressive
Метод сжатия : Lossy
Бит/(Пиксели*Кадры) : 0.221
Размер потока : 968 MiB (90%)
Библиотека кодирования : XviD 1.2.1 (UTC 2008-12-04)

Audio
Идентификатор : 1
Формат : AC-3
Формат/Информация : Audio Coding 3
Расширение режима : CM (complete main)
Параметр Endianness формата : Big
Идентификатор кодека : 2000
Продолжительность : 1h 12mn
Вид битрейта : Constant
Битрейт : 192 Kbps
Каналы : 2 channels
Расположение каналов : Front: L R
Частота : 48.0 KHz
Битовая глубина : 16 bits
Метод сжатия : Lossy
Размер потока : 100.0 MiB (9%)
Выравнивание : Split accross interleaves
Продолжительность промежутка : 40 ms (1.00 video frame)
Время предзагрузки промежутка : 500 ms


Во всех сценах атаки «мессеров» летают реактивные самолеты L-29 Волгоградского УАЦ ДОСААФ.
В ночь на 2 октября 1974 года умер Василий Шукшин. Съемки были приостановлены. Некоторые сцены с участием его героя были досняты в Москве с привлечением дублера.
Шолохов сначала отказал Сергею Бондарчуку экранизировать его роман, но впоследствии согласился....

скриншот   скриншот   скриншот   скриншот   скриншот  скриншот   скриншот   скриншот   скриншот   скриншот  
pb.wtf



Скачать Они сражались за Родину через торрент http://i4.imageban.ru/out/2012/07/28/3987449d5f35a3102ce1ffa90d3bd191.jpg Скачать фильм Они сражались за Родину через торрент бесплантно в хорошем качестве Описание: Июль 1942 года. На подступах к Сталинграду обескровленные, измотанные советские войска ведут тяжёлые оборонительные бои, неся ... 10 10 23
Info! Золотая раздача, скачанное не засчитывается.
Торрент: Зарегистрирован [2014-05-09 08:02] · скачан: 846 раз
Статус: √ проверено
Размер: 2.17 GB
Как cкачать? Как скачать Они сражались за Родину через торрент | qTorrent

% Раздел Тема Автор DL S | L
Кино СССР [ 2.05 GB ] Они сражались за Родину [1975 военный DVDRip] ДениС22 Скачать
1 | 0
Кино СССР [ 1.46 GB ] Они сражались за Родину [1975 СССР Военный BDRip] Twi7ter Скачать
1 | 0
Кино СССР [ 8.86 GB ] Они сражались за Родину [1975 история военный HDTV 1080i] Assasinca Скачать
1 | 0


Последний раз редактировалось: Notturno (2014-05-09 08:17), всего редактировалось 5 раз(а)


>> Регистрируемся здесь <<






Отзывы и комментарии о схеме читаем и пишем здесь: ---> Отзывы и комментарии о схеме

Новые благодарочки в телеграм довольных пользователей:
скриншот   скриншот   скриншот   скриншот   скриншот

09-05-2014 08:06 Они сражались за Родину Скачать торрент  

Приятного просмотра:)С Днем Победы!pb.wtf



09-05-2014 11:06 Они сражались за Родину Скачать торрент  

...Всех с Праздником! Автору Спб.!....по больше бы нашей классикиpb.wtf



09-05-2014 11:42 Они сражались за Родину Скачать торрент  

ВЕЛИКАЯ ОТЕЧЕСТВЕННАЯ ВОЙНА ЗАВЕРШЕНА, ГЕРМАНИЯ ПОЛНОСТЬЮ РАЗГРОМЛЕНА! С ДНЁМ ПОБЕДЫ!
что за медалька на груди у лопахина?pb.wtf



09-05-2014 15:12 Они сражались за Родину Скачать торрент  

Axion писал(а):

ВЕЛИКАЯ ОТЕЧЕСТВЕННАЯ ВОЙНА ЗАВЕРШЕНА, ГЕРМАНИЯ ПОЛНОСТЬЮ РАЗГРОМЛЕНА! С ДНЁМ ПОБЕДЫ!
что за медалька на груди у лопахина?

За отвагу, до 43 года такая былаpb.wtf



05-07-2014 13:32 Они сражались за Родину Скачать торрент  

Фильм супер,спасибо.pb.wtf



27-03-2015 08:23 Они сражались за Родину Скачать торрент  

Отличный фильм! Классика военного кино.pb.wtf



    Дорогой пользователь! Огромная просьба, поблагодарите релизера, оцените раздачу и оставьте свои комментарий, если Вы скачали Они сражались за Родину через торрент бесплатно! Внесите свою лепту в развитие PiratBit!
    Комментировать посты могут только пользователи прошедшие не сложную регистрацию
    Показать сообщения:    

    Они сражались за Родину через торрент
    Скачать бесплатно Они сражались за Родину
    Они сражались за Родину скачать торрент
    Они сражались за Родину смотреть онлайн
    Cкачать фильм Они сражались за Родину бесплатно
    Они сражались за Родину скачать торрент в хорошем качестве
    Они сражались за Родину смотреть онлайн бесплатно в хорошем качестве


    Вы не можете начинать темы
    Вы не можете отвечать на сообщения
    Вы не можете редактировать свои сообщения
    Вы не можете удалять свои сообщения
    Вы не можете голосовать в опросах
    Вы не можете прикреплять файлы к сообщениям
    Вы можете скачивать файлы