Death Stranding+DLC+АВТОАКТИВАЦИЯ

iTunes

iTunes

iTunes

1

iTunes

iTunes

iTunes

iTunes

iTunes

30
pack

$ от Little Big

ВАЖНО

!!Акция!!

Alien_RageХит недели

RePack

Resident Evil 21

ИГРА 18+

pack

RePack

jed

!!Акция!!

Alien_Rage

RePack

fifa19

RePack

Assassins Creed: Odyssey

RePack

NEED FOR SPEED™ PAYBACK

4 сезон

9 сезон

Бесстыжие 9 сезон

Все сериалы

все сериалы на PB.wtf

RePack

FAR CRY 5
  

Секретный эксперимент / Banshee Chapter (Блэр Эриксон / Blair Erickson) [2012, Германия, США, ужасы, триллер,WEB-DL 1080p ,Профессиональный [Дубляж] pb.wtf

Секретный эксперимент через торрент pb.wtf

Размер: 4.74 GB | Добавлен: 6 лет 2 мес. назад | Торрент скачан:315 раз
Скачать  

09-05-2014 10:41 Секретный эксперимент Скачать торрент  

Секретный эксперимент / Banshee Chapter
«Расширь своё сознание»


  • Год выпуска: 2012
  • Страна: Германия, США
  • Жанр: ужасы, триллер
  • Продолжительность: 01:27:08
  • Перевод: Профессиональный [Дубляж]
  • Субтитры: Eng
  • Режиссер: Блэр Эриксон / Blair Erickson
  • В ролях:

    Катя Винтер (Anne Roland), Майкл МакМиллиан (James Hirsch), Тед Левайн (Thomas Blackburn), Кори Мооса (Patient 11), Моник Канделария (Patient 14), Дженни Гэбриэлль (Callie), Вивиан Несбитт (Olivia Kmiec), Чед Брамметт (Dr. Kessel), Уильям Стерчи (Henry Cale), Алекс Джианопулос (Renny), Дж.Д. Гарфилд (Elderly Doctor), Кевин Уиггинс (Black Rock County Sheriff)

  • Описание:
    Молодая журналистка Энн расследует случай бесследного исчезновения своего друга, с которым вместе они учились в университете. В его доме Энн находит запись, которую приятель сделал на камеру, и в которой рассказывает, что занимался изучением одного из секретных правительственных экспериментов по разработке сыворотки, способной изменять сознание людей. Сыворотка изготавливалась из мозга умерших, результаты экспериментов были засекречены, программа свернута. Ужасная правда заключается в том, что пропавший журналист в ходе своего расследования получил доступ к документам и химической формуле сыворотки и решил принять ее сам, после чего исчез. Энн пытается разобраться в сути правительственного эксперимента и найти его участников, чтобы разобраться в том, что же произошло с ее другом. В ходе ее расследования всплывает правда настолько страшная, что лучше бы Энн было ее не знать.
  • Рейтинг
    kinopoisk.ru: 5.096 (947)
    imdb.com: 5.40 (1602)
    MPAA: R - Лицам до 17 лет обязательно присутствие взрослого
  • Качество: WEB-DL 1080p
  • Формат: MKV
  • Видео кодек: AVC
  • Аудио кодек: AC3
  • Видео: AVC, 1920x1080 (16:9), 6474 kbps, 25 fps, 0,125 bpp
  • Аудио №1: русский / AC3 / 5.1 / 48 kHz / 384 kbps / 16 bit |VO Vano|
    Аудио №2: английский / AC3 / 5.1 / 48 kHz / 384 kbps / 16 bit Original
    Аудио №3: русский / AC3 / 2.0 / 48 kHz / 384 kbps / 16 bit |Дублированное [Студия Sound Pro]|
  • Релиз от: ஐ-Best is the Best-ஐ
    General
    Unique ID : 222086614936985075684669599502902873303 (0xA71453818BEBB35BB9CB7840F15DCCD7)
    Complete name : F:\Музыка\The.Banshee.Chapter.2014.WEB-DL.1080p.Deadmauvlad_HD.mkv
    Format : Matroska
    Format version : Version 4 / Version 2
    File size : 4.74 GiB
    Duration : 1h 27mn
    Overall bit rate : 7 781 Kbps
    Movie name : The Banshee Chapter 2013 WEB-DL 720p GORESEWAGE
    Encoded date : UTC 2014-04-08 12:16:46
    Writing application : mkvmerge v6.1.0 ('Old Devil') built on Mar 4 2013 09:10:42
    Writing library : libebml v1.3.0 + libmatroska v1.4.0
    Attachment : Yes

    Video
    ID : 1
    Format : AVC
    Format/Info : Advanced Video Codec
    Format profile : High@L5.1
    Format settings, CABAC : Yes
    Format settings, ReFrames : 3 frames
    Codec ID : V_MPEG4/ISO/AVC
    Duration : 1h 27mn
    Bit rate mode : Constant
    Bit rate : 6 474 Kbps
    Nominal bit rate : 7 000 Kbps
    Width : 1 920 pixels
    Height : 1 080 pixels
    Display aspect ratio : 16:9
    Frame rate : 25.000 fps
    Standard : PAL
    Color space : YUV
    Chroma subsampling : 4:2:0
    Bit depth : 8 bits
    Scan type : Progressive
    Bits/(Pixel*Frame) : 0.125
    Stream size : 3.94 GiB (83%)
    Title : The.Banshee.Chapter.2014.WEB-DL.1080p.Deadmauvlad
    Language : Russian
    Default : Yes
    Forced : No
    Color primaries : BT.709-5, BT.1361, IEC 61966-2-4, SMPTE RP177
    Transfer characteristics : BT.709-5, BT.1361
    Matrix coefficients : BT.709-5, BT.1361, IEC 61966-2-4 709, SMPTE RP177

    Audio #1
    ID : 2
    Format : AC-3
    Format/Info : Audio Coding 3
    Mode extension : CM (complete main)
    Codec ID : A_AC3
    Duration : 1h 27mn
    Bit rate mode : Constant
    Bit rate : 384 Kbps
    Channel(s) : 6 channels
    Channel positions : Front: L C R, Side: L R, LFE
    Sampling rate : 48.0 KHz
    Bit depth : 16 bits
    Compression mode : Lossy
    Stream size : 239 MiB (5%)
    Title : VO VANO
    Language : Russian
    Default : No
    Forced : No

    Audio #2
    ID : 3
    Format : AC-3
    Format/Info : Audio Coding 3
    Mode extension : CM (complete main)
    Codec ID : A_AC3
    Duration : 1h 27mn
    Bit rate mode : Constant
    Bit rate : 384 Kbps
    Channel(s) : 6 channels
    Channel positions : Front: L C R, Side: L R, LFE
    Sampling rate : 48.0 KHz
    Bit depth : 16 bits
    Compression mode : Lossy
    Stream size : 239 MiB (5%)
    Title : Original
    Language : English
    Default : No
    Forced : No

    Audio #3
    ID : 5
    Format : AC-3
    Format/Info : Audio Coding 3
    Mode extension : CM (complete main)
    Codec ID : A_AC3
    Duration : 1h 27mn
    Bit rate mode : Constant
    Bit rate : 384 Kbps
    Channel(s) : 2 channels
    Channel positions : Front: L R
    Sampling rate : 48.0 KHz
    Bit depth : 16 bits
    Compression mode : Lossy
    Stream size : 239 MiB (5%)
    Title : Dub (Sound Pro)
    Language : Russian
    Default : Yes
    Forced : No

    Text
    ID : 4
    Format : UTF-8
    Codec ID : S_TEXT/UTF8
    Codec ID/Info : UTF-8 Plain Text
    Title : SDH
    Language : English
    Default : No
    Forced : No

    Скриншоты:


    pb.wtf
    KMessa-fan писал(а):

    T временная
    AC3 / 2.0 / 384 kbps



  • Скачать Секретный эксперимент через торрент http://pic.kartinco.top/new/img/2014-05/09/b87rxtp3sbawyahmi4sazft0t.png Скачать фильм Секретный эксперимент через торрент бесплантно в хорошем качестве Описание: Молодая журналистка Энн расследует случай бесследного исчезновения своего друга, с которым вместе они учились в университете. В ... 10 10 9
    Торрент: Зарегистрирован [2014-05-09 10:56] · скачан: 315 раз
    Статус: T временная
    Размер: 4.74 GB
    Как cкачать? Как скачать Секретный эксперимент через торрент | qTorrent

    % Раздел Тема Автор DL S | L
    Фильмы 2013 [DVDrip, WEB-DLRip, HDrip] [ 1.54 GB ] Секретный эксперимент / Banshee Chapter [2013 HDRip-AVC] DUB Ворон Скачать
    1 | 0
    Фильмы 2013 [DVDrip, WEB-DLRip, HDrip] [ 1.37 GB ] Секретный эксперимент / The Banshee Chapter [2013 Германия WEB-DLRip [ -] Ворон Скачать
    1 | 0

    28-11-2019 20:33  

    Отключить всю рекламу на сайте

    09-05-2014 11:09 Секретный эксперимент Скачать торрент  

    кстати звук то не дутый а нормальный могу в лс отправить WAV-ку оригинальную а видео взято с закрытого торрент трекераpb.wtf



    18-05-2014 16:52 Секретный эксперимент Скачать торрент  

    есть ляпы, но в целом впечатление позитивное от просмотра.pb.wtf



      Дорогой пользователь! Огромная просьба, поблагодарите релизера, оцените раздачу и оставьте свои комментарий, если Вы скачали Секретный эксперимент через торрент бесплатно! Внесите свою лепту в развитие PiratBit!
      Комментировать посты могут только пользователи прошедшие не сложную регистрацию
      Показать сообщения:    

      Секретный эксперимент через торрент
      Скачать бесплатно Секретный эксперимент
      Секретный эксперимент скачать торрент
      Секретный эксперимент смотреть онлайн
      Cкачать фильм Секретный эксперимент бесплатно
      Секретный эксперимент скачать торрент в хорошем качестве
      Секретный эксперимент смотреть онлайн бесплатно в хорошем качестве


      Вы не можете начинать темы
      Вы не можете отвечать на сообщения
      Вы не можете редактировать свои сообщения
      Вы не можете удалять свои сообщения
      Вы не можете голосовать в опросах
      Вы не можете прикреплять файлы к сообщениям
      Вы можете скачивать файлы