Ссылка на приватное зеркало нашего сайта всего за 1$. Внимание количество ограничено!!!

2 сезон

iTunes

1 сезон

1

iTunes

iTunes

iTunes

1 сезон

RePack

30

ИГРА 18+

pack

ВАЖНО

!!Акция!!

Alien_RageХит недели

RePack

MK11
pack

Забери бонус

RePack

jed

!!Акция!!

Alien_Rage

RePack

fifa19

RePack

Assassins Creed: Odyssey

RePack

NEED FOR SPEED™ PAYBACK

4 сезон

9 сезон

Бесстыжие 9 сезон

Все сериалы

все сериалы на PB.wtf

RePack

FAR CRY 5
  

Зона высадки / Drop Zone (Джон Бэдэм / John Badham) [1994, США, боевик, триллер, приключения, BDRip 1080p,Профессиональный (многоголосый, закадровый) pb.wtf

Зона высадки через торрент pb.wtf

Размер: 4.36 GB | Добавлен: 6 лет 5 мес. назад | Торрент скачан:127 раз
Скачать  

09-05-2014 13:44 Зона высадки Скачать торрент  

Зона высадки / Drop Zone
«Something Dangerous Is In The Air»


  • Год выпуска: 1994
  • Страна: США
  • Жанр: боевик, триллер, приключения
  • Продолжительность: 01:41:32
  • Перевод: Профессиональный (многоголосый, закадровый)
  • Субтитры: Нет
  • Режиссер: Джон Бэдэм / John Badham
  • В ролях:

    Уэсли Снайпс (Pete Nessip), Гэри Бьюзи (Ty Moncrief), Янси Батлер (Jessie Crossman), Майкл Джитер (Earl Leedy), Корин Немек (Selkirk), Кайл Сикор (Swoop), Лука Берковичи (Don Jagger), Мальколм-Джамал Уорнер (Terry Nessip), Грейс Забриски (Winona), Рекс Линн (Bobby), Роберт ЛаСардо (Deputy Dog), Сэм Хеннингс (Torski)

  • Описание:
    Полицейский и его брат перевозили преступника, специалиста по компьютерам, для дачи показаний в суде. В самолете, в котором они везли этого компьютерного гения, на них напали террористы.
    Они взорвали кусок обшивки и выпрыгнули с парашютами, прихватив с собой этого ценного парня, столь нужного им для «работы». При этом брат полицейского погиб, а его самого отстранили от расследования, так как этого требовали правила следствия. Но полицейский, естественно, оставить этого так не мог. Он начинает поиски убийц.

  • Рейтинг
    kinopoisk.ru: 6.513 (1038)
    imdb.com: 5.50 (13 296)
    MPAA: R - Лицам до 17 лет обязательно присутствие взрослого
  • Качество: BDRip 1080p
  • Формат: MKV
  • Видео кодек: AVC
  • Аудио кодек: AC3
  • Видео: AVC, 1920x808 (2.40:1), 5706 kbps, 23,976 fps, 0,153 bpp
  • Аудио: AC3 / 5.1 / 48 kHz / 448 kbps / 16 bit Многоголосный
  • Релиз от: ஐ-Best is the Best-ஐ
    General
    Unique ID : 250036126334842335158423239927223534953 (0xBC1B34CF55D918E8B24760A60A03C569)
    Complete name : F:\Музыка\Zona.Vysadki.(1994).BDRip-1080р.[-=DoMiNo=-].mkv
    Format : Matroska
    Format version : Version 2
    File size : 4.36 GiB
    Duration : 1h 41mn
    Overall bit rate : 6 154 Kbps
    Encoded date : UTC 2014-05-08 02:42:56
    Writing application : mkvmerge v6.1.0 ('Old Devil') built on Mar 4 2013 09:10:42
    Writing library : libebml v1.3.0 + libmatroska v1.4.0

    Video
    ID : 1
    Format : AVC
    Format/Info : Advanced Video Codec
    Format profile : High@L4.1
    Format settings, CABAC : Yes
    Format settings, ReFrames : 5 frames
    Codec ID : V_MPEG4/ISO/AVC
    Duration : 1h 41mn
    Bit rate : 5 706 Kbps
    Width : 1 920 pixels
    Height : 808 pixels
    Display aspect ratio : 2.40:1
    Frame rate : 23.976 fps
    Color space : YUV
    Chroma subsampling : 4:2:0
    Bit depth : 8 bits
    Scan type : Progressive
    Bits/(Pixel*Frame) : 0.153
    Stream size : 3.96 GiB (91%)
    Writing library : x264 core 130 r2273 b3065e6
    Encoding settings : cabac=1 / ref=5 / deblock=1:-3:-3 / analyse=0x3:0x133 / me=umh / subme=11 / psy=1 / psy_rd=1.00:0.50 / mixed_ref=1 / me_range=32 / chroma_me=1 / trellis=2 / 8x8dct=1 / cqm=0 / deadzone=21,11 / fast_pskip=0 / chroma_qp_offset=-3 / threads=16 / lookahead_threads=4 / sliced_threads=0 / nr=0 / decimate=1 / interlaced=0 / bluray_compat=0 / constrained_intra=0 / bframes=8 / b_pyramid=2 / b_adapt=2 / b_bias=0 / direct=3 / weightb=1 / open_gop=0 / weightp=2 / keyint=240 / keyint_min=23 / scenecut=40 / intra_refresh=0 / rc_lookahead=150 / rc=2pass / mbtree=1 / bitrate=5706 / ratetol=1.0 / qcomp=0.70 / qpmin=10 / qpmax=51 / qpstep=4 / cplxblur=20.0 / qblur=0.5 / ip_ratio=1.40 / aq=2:2.00
    Default : Yes
    Forced : No

    Audio
    ID : 2
    Format : AC-3
    Format/Info : Audio Coding 3
    Mode extension : CM (complete main)
    Codec ID : A_AC3
    Duration : 1h 41mn
    Bit rate mode : Constant
    Bit rate : 448 Kbps
    Channel(s) : 6 channels
    Channel positions : Front: L C R, Side: L R, LFE
    Sampling rate : 48.0 KHz
    Bit depth : 16 bits
    Compression mode : Lossy
    Stream size : 325 MiB (7%)
    Default : Yes
    Forced : No

    Скриншоты:


    pb.wtf
    KMessa-fan писал(а):

    # сомнительно
    1920x808 (2.40:1), 5706 kbps
    нехватка битрейта



  • Скачать Зона высадки через торрент http://pic.kartinco.top/new/img/2014-05/09/74057ajpw5eago1mzupg8c0pz.png Скачать фильм Зона высадки через торрент бесплантно в хорошем качестве Описание: Полицейский и его брат перевозили преступника, специалиста по компьютерам, для дачи показаний в суде. В самолете, в котором они ... 10 10 11
    Торрент: Зарегистрирован [2014-05-09 13:44] · скачан: 127 раз
    Статус: # сомнительно
    Размер: 4.36 GB
    Как cкачать? Как скачать Зона высадки через торрент | qTorrent

    % Раздел Тема Автор DL S | L
    Фильмы с авторской озвучкой [ 1.47 GB ] Зона высадки / Drop Zone [1994 BDRip] [AVO] + [VO] killermax2013 Скачать
    1 | 0

    28-11-2019 20:33  

    Отключить всю рекламу на сайте

    10-05-2014 02:06 Зона высадки Скачать торрент  

    крутое кино. кто не видел - смотреть!pb.wtf



      Дорогой пользователь! Огромная просьба, поблагодарите релизера, оцените раздачу и оставьте свои комментарий, если Вы скачали Зона высадки через торрент бесплатно! Внесите свою лепту в развитие PiratBit!
      Комментировать посты могут только пользователи прошедшие не сложную регистрацию
      Показать сообщения:    

      Зона высадки через торрент
      Скачать бесплатно Зона высадки
      Зона высадки скачать торрент
      Зона высадки смотреть онлайн
      Cкачать фильм Зона высадки бесплатно
      Зона высадки скачать торрент в хорошем качестве
      Зона высадки смотреть онлайн бесплатно в хорошем качестве


      Вы не можете начинать темы
      Вы не можете отвечать на сообщения
      Вы не можете редактировать свои сообщения
      Вы не можете удалять свои сообщения
      Вы не можете голосовать в опросах
      Вы не можете прикреплять файлы к сообщениям
      Вы можете скачивать файлы