Ссылка на приватное зеркало нашего сайта всего за 1$. Внимание количество ограничено!!!

2 сезон

iTunes

1 сезон

1

iTunes

iTunes

iTunes

1 сезон

RePack

30

ИГРА 18+

pack

ВАЖНО

!!Акция!!

Alien_RageХит недели

RePack

MK11
pack

Забери бонус

RePack

jed

!!Акция!!

Alien_Rage

RePack

fifa19

RePack

Assassins Creed: Odyssey

RePack

NEED FOR SPEED™ PAYBACK

4 сезон

9 сезон

Бесстыжие 9 сезон

Все сериалы

все сериалы на PB.wtf

RePack

FAR CRY 5
  

Седьмой этаж / Séptimo (Пачи Амескуа) [2013 г., триллер, HDRip, Любительский одноголосый] pb.wtf

Седьмой этаж через торрент pb.wtf

Размер: 1.42 GB | Добавлен: 6 лет 5 мес. назад | Торрент скачан:93 раза
Скачать  

09-05-2014 16:11 Седьмой этаж Скачать торрент  

Седьмой этаж / Séptimo
Год выпуска: 2013
Страна: Испания, Аргентина / CEPA Audiovisual, El Toro Productions, Ikiru Films
Жанр: триллер
Продолжительность: 01:27:11
Перевод: Любительский одноголосый (ХихиДок)

Режиссер: Пачи Амескуа

В ролях: Рикардо Дарин, Белен Руэда, Луис Зембровски, Освальдо Санторо, Гиллермо Аренго, Хорхе Д’Элия, Андреа Карбальо

Описание: Себастьян преуспевающий адвокат из Буэнос-Айреса. Вместе со своими двумя маленькими детьми он каждый раз играет в одну и ту же игру. Кто быстрее окажется внизу? Он на лифте или они сбегут по лестнице. Как всегда, отец оказывается на месте первым, но на этот раз детей нигде нет. Они просто исчезли. С этого момента перепуганные отец и мать начинают гонку со временем, пытаясь найти своих детей.

Качество: HDRip
Формат: AVI
Видео кодек: XviD
Аудио кодек: AC3
Видео: 720x304 (2.37:1), 23.976 fps, XviD build 50 ~2188 kbps avg, 0.42 bit/pixel
Аудио: 44.1 kHz, AC3 Dolby Digital, 2/0 (L,R) ch, ~192 kbps


Общее
Полное имя : H:\кино\Septimo.2013.HDRip.avi
Формат : AVI
Формат/Информация : Audio Video Interleave
Размер файла : 1,42 Гбайт
Продолжительность : 1 ч. 27 м.
Общий поток : 2337 Кбит/сек
Программа кодирования : VirtualDubMod 1.5.10.3 | www.virtualdub-fr.org || (build 2550/release)
Библиотека кодирования : VirtualDubMod build 2550/release

Видео
Идентификатор : 0
Формат : MPEG-4 Visual
Профиль формата : Advanced Simple@L5
Параметр BVOP формата : 2
Параметр QPel формата : Нет
Параметр GMC формата : Без точки перехода
Параметр матрицы формата : Default (H.263)
Идентификатор кодека : XVID
Идентификатор кодека/Подсказка : XviD
Продолжительность : 1 ч. 27 м.
Битрейт : 2189 Кбит/сек
Ширина : 720 пикселей
Высота : 304 пикселя
Соотношение сторон : 2,35:1
Частота кадров : 23,976 кадра/сек
Цветовое пространство : YUV
Субдискретизация насыщенности : 4:2:0
Битовая глубина : 8 бит
Тип развёртки : Прогрессивная
Метод сжатия : С потерями
Бит/(Пиксели*Кадры) : 0.417
Размер потока : 1,33 Гбайт (94%)
Библиотека кодирования : XviD 1.2.1 (UTC 2008-12-04)

Аудио
Идентификатор : 1
Формат : AC-3
Формат/Информация : Audio Coding 3
Расширение режима : CM (complete main)
Параметр Endianness формата : Big
Идентификатор кодека : 2000
Продолжительность : 1 ч. 3 м.
Продолжительность оригинала : 1 ч. 3 м.
Вид битрейта : Постоянный
Битрейт : 192 Кбит/сек
Каналы : 2 канала
Расположение каналов : Front: L R
Частота : 44,1 КГц
Битовая глубина : 16 бит
Метод сжатия : С потерями
Размер потока : 87,4 Мбайт (6%)
Выравнивание : Разделение по промежуткам
Продолжительность промежутка : 57 мс. (1,37 видеокадр)
Время предзагрузки промежутка : 500 мс.

pb.wtf



Скачать Седьмой этаж через торрент http://pic.kartinco.top/images/6/g9iy3.jpg Скачать фильм Седьмой этаж через торрент бесплантно в хорошем качестве Описание: Себастьян преуспевающий адвокат из Буэнос-Айреса. Вместе со своими двумя маленькими детьми он каждый раз играет в одну и ту же ... 10 10 4
Торрент: Зарегистрирован [2014-05-09 16:11] · скачан: 93 раз
Статус: T временная
Размер: 1.42 GB
Как cкачать? Как скачать Седьмой этаж через торрент | qTorrent

28-11-2019 20:33  

Отключить всю рекламу на сайте

    Дорогой пользователь! Огромная просьба, поблагодарите релизера, оцените раздачу и оставьте свои комментарий, если Вы скачали Седьмой этаж через торрент бесплатно! Внесите свою лепту в развитие PiratBit!
    Комментировать посты могут только пользователи прошедшие не сложную регистрацию
    Показать сообщения:    

    Седьмой этаж через торрент
    Скачать бесплатно Седьмой этаж
    Седьмой этаж скачать торрент
    Седьмой этаж смотреть онлайн
    Cкачать фильм Седьмой этаж бесплатно
    Седьмой этаж скачать торрент в хорошем качестве
    Седьмой этаж смотреть онлайн бесплатно в хорошем качестве


    Вы не можете начинать темы
    Вы не можете отвечать на сообщения
    Вы не можете редактировать свои сообщения
    Вы не можете удалять свои сообщения
    Вы не можете голосовать в опросах
    Вы не можете прикреплять файлы к сообщениям
    Вы можете скачивать файлы