Доктор Стрэндж

Лицензия

Добыча

Дубляж

Дом дракона

1 сезон

Тор

Дубляж

В эфире

Дубляж

Там, где раки поют

MVO

Властелин колец

1 сезон

GLOBAL

pack

Рекомендуем

30

Пиратка

ВАЖНО

ВАЖНО

Ghostwire

Пиратка

jed

RePack

nioh2

RePack

RDR2

RePack

NEED FOR SPEED™ PAYBACK

RePack

скачать торрент

Кинопоиск HD

Острые козырьки 6 сезон

6 сезон

FAR CRY 6

RePack

скачать торрент

Лицензия

скачать торрент

MVO

1

1 сезон

скачать торрент

1 сезон

скачать торрент

Лицензия

  

Робокоп / RoboCop (Жозе Падилья) [2014 г., Фантастика, боевик, криминал, Blu-ray, Дубляж]

Робокоп через торрент pb.wtf

Размер: 26.81 GB | Добавлен: 8 лет 6 мес. назад | Торрент скачан:210 раз
Смотреть онлайн | Скачать   

09-05-2014 18:46 Робокоп Скачать торрент  

Робокоп / RoboCop
Год выпуска: 2014
Страна: США
Жанр: Фантастика, боевик, криминал
Продолжительность: 01:57:29
Перевод: Дубляж+Украинский+оригинал
Субтитры: Русские, украинские, английские

Режиссер: Жозе Падилья

В ролях: Юэль Киннаман, Гари Олдман, Майкл Китон, Эбби Корниш, Джей Барушель, Сэмюэл Л. Джексон, Айми Гарсиа, Дженнифер Или, Джеки Эрл Хейли, Майкл К. Уильямс

Описание: Алекс Мерфи, любящий муж, отец и хороший полицейский, борется с лавиной преступности и коррупции, обрушившейся на Детройт. Его, тяжело раненного при исполнении служебных обязанностей, OmniCorp решает задействовать в своем робототехническом эксперименте, чтобы спасти герою жизнь. Алекс возвращается на улицы города, имея в багаже новые способности, но задаваясь вопросами, с которыми человеку никогда ранее не приходилось сталкиваться.

Качество: Blu-ray
Формат: BDMV
Видео кодек: H.264
Аудио кодек: AC3-DTS-HD MA
Видео: MPEG-4 AVC, (1920x1080),26286 Кбит/с, 23.976 кадра/сек
Аудио#1: AC-3, 6 ch, 384 kbps (Rus) 48.0 KHz Дубляж
Аудио#2: AC-3, 2 ch, 192 kbps (Ukr) 48.0 KHz Украинский
Аудио#3: DTS-HD MA, 6 ch, 1509 kbps (Eng) 48.0 KHzОригинал
скриншот   скриншот   скриншот  

Тип потока: Видео
Длительность: 01:57:29
Кодек: AVC
Кодек/описание: Advanced Video Codec
Кодек/профиль: [email protected]
Кодек/ID: 27
Кодек/CABAC: Yes
Кодек/ReFrames: 4 frames
Размеры изображения: 1920 x 1080 (16:9)
Частота кадров: 23.976 fps
Битрейт/макс: 32.0 Mbps
Битрейт/тип: VBR
Цветовое пространство: YUV
Тип развёртки: Progressive
Колориметрия: 4:2:0
Глубина: 8 bits
:
Тип потока: Звук #1
Язык: Russian
Длительность: 01:57:30.208
Кодек: AC-3
Кодек/описание: Audio Coding 3
Кодек/ID: 129
Частота дискретизации: 48.0 KHz
Каналов: 6 channels
Битрейт: 384 Kbps
Битрейт/тип: Constant
Размер потока: 323 MiB (1%)
Глубина: 16 bits
Метод сжатия: Lossy
:
Тип потока: Звук #2
Язык: Ukrainian
Длительность: 01:57:30.208
Кодек: AC-3
Кодек/описание: Audio Coding 3
Кодек/профиль: Dolby Digital
Кодек/ID: 129
Частота дискретизации: 48.0 KHz
Каналов: 2 channels
Битрейт: 192 Kbps
Битрейт/тип: Constant
Размер потока: 161 MiB (1%)
Глубина: 16 bits
Метод сжатия: Lossy
:
Тип потока: Звук #3
Язык: English
Длительность: 01:57:29.216
Кодек: DTS
Кодек/описание: Digital Theater Systems
Кодек/профиль: MA / Core
Режим смешивания: Stream extension
Кодек/ID: 134
Частота дискретизации: 48.0 KHz
Каналов: 6 channels
Битрейт: Unknown / 1 509 Kbps
Битрейт/тип: Variable
Глубина: 24 bits
Метод сжатия: Lossless / Lossy
:
Тип потока: Субтитры #1
Язык: Russian
Формат: PGS
:
Тип потока: Субтитры #2
Язык: Ukrainian
Формат: PGS
:
Тип потока: Субтитры #3
Язык: Russian
Формат: PGS
:
Тип потока: Субтитры #4
Язык: Ukrainian
Формат: PGS
:
Тип потока: Субтитры #5
Язык: English
Формат: PGS




Скачать Робокоп через торрент https://pic1.kartinco.top/images/61/tspn1.jpg Скачать, смотреть онлайн Робокоп бесплантно в хорошем качестве Описание: Алекс Мерфи, любящий муж, отец и хороший полицейский, борется с лавиной преступности и коррупции, обрушившейся на Детройт. Его, ... 9.8 10 9
Info! Золотая раздача, скачанное не засчитывается.
Торрент: Зарегистрирован [2014-05-09 18:46] · скачан: 210 раз
Статус: √ проверено
Размер: 26.81 GB
Как cкачать? Как скачать Робокоп через торрент | UTorrent

% Раздел Тема Автор DL S | L
Фильмы (HD 720p, 1080p) (48-60 fps) [ 4.07 GB ] РобоКоп / RoboCop | Дубляж | 720p / 60 FPS slaventi-69 Скачать
2 | 0
Фильмы [HD 720p, 1080p] (Хороший звук DUB, MVO) [ 8.25 GB ] Робокоп / RoboCop | Дубляж + Оригинал | 1080p, Дубляж + Оригинал Бумер Скачать
1 | 0
Фильмы (Blu-ray, BD-Remux, HDDVD) [ 35.6 GB ] Робокоп / RoboCop | DUB | 1080p sheker187 Скачать
1 | 0
Фильмы [HD 720p, 1080p] (Хороший звук DUB, MVO) [ 4.14 GB ] РобоКоп / RoboCop | Дубляж | 1080p [HEVC Мичман37 Скачать
1 | 0
Фильмы 2014 [DVDrip, WEB-DLRip, HDrip] [ 2.18 GB ] Робокоп / RoboCop | Лицензия | BDRip-AVC potroks Скачать
1 | 0
Фильмы 2014 [DVDrip, WEB-DLRip, HDrip] [ 1.45 GB ] Робокоп / RoboCop | Лицензия | BDRip-AVC potroks Скачать
1 | 0
Фильмы 2013 [DVDrip, WEB-DLRip, HDrip] [ 1008 MB ] РобоКоп / RoboCop | Лицензия | DLRip killermax2013 Скачать
1 | 0

28-11-2019 20:33  


Отключить вcю реклaмy на сайте, в т.ч. и в плеере онлайн просмотра!

09-05-2014 18:53 Робокоп Скачать торрент  

фильм класс советую просмотрел в блю рей отлично



09-05-2014 20:27 Робокоп Скачать торрент  

ГАЙК писал(а):

фильм класс советую просмотрел в блю рей отлично

мне не понравился, сооовсем! лучше бы в на экране показали старый фильм!



    Дорогой пользователь! Огромная просьба, поблагодарите релизера, оцените раздачу и оставьте свои комментарий, если Вы скачали Робокоп через торрент бесплатно!!
    Комментировать посты могут только пользователи прошедшие не сложную регистрацию
    Показать сообщения:    


    Робокоп через торрент
    Скачать бесплатно Робокоп
    Робокоп скачать торрент
    Робокоп смотреть онлайн
    Cкачать фильм Робокоп бесплатно
    Робокоп скачать торрент в хорошем качестве
    Робокоп смотреть онлайн бесплатно в хорошем качестве
    Вы не можете начинать темы
    Вы не можете отвечать на сообщения
    Вы не можете редактировать свои сообщения
    Вы не можете удалять свои сообщения
    Вы не можете голосовать в опросах
    Вы не можете прикреплять файлы к сообщениям
    Вы можете скачивать файлы
    Робокоп / RoboCop [2014 г., Фантастика, боевик, криминал, Blu-ray, Дубляж] смотреть онлайн, скачать торрент picoco.icu