2 сезон

iTunes

1 сезон

1

iTunes

iTunes

iTunes

1 сезон

RePack

30

ИГРА 18+

pack

ВАЖНО

!!Акция!!

Alien_RageХит недели

RePack

MK11
pack

Забери бонус

RePack

jed

!!Акция!!

Alien_Rage

RePack

fifa19

RePack

Assassins Creed: Odyssey

RePack

NEED FOR SPEED™ PAYBACK

4 сезон

9 сезон

Бесстыжие 9 сезон

Все сериалы

все сериалы на PB.wtf

RePack

FAR CRY 5
  

Колыбельная для Пи / Lullaby for Pi (Бенуа Филиппон) [2010 г., драма, HDRip, Любительский двухголосый] pb.wtf

Колыбельная для Пи через торрент pb.wtf

Размер: 1.45 GB | Добавлен: 6 лет 5 мес. назад | Торрент скачан:44 раза
Скачать  

10-05-2014 12:31 Колыбельная для Пи Скачать торрент  

Колыбельная для Пи / Lullaby for Pi
Год выпуска: 2010
Страна: Франция, Канада / Forecast Pictures , Minds Eye Entertainment
Жанр: драма
Продолжительность: 01:38:09
Перевод: Любительский двухголосый (Victory Films)

Режиссер: Бенуа Филиппон

В ролях: Руперт Френд,Клеманс Поэзи,Мэтт Уорд,Форест Уитакер,Сара Уэйн Кэллис,Колин Лоуренс,Дьюшэйн Уильямс,Андре Ричардс,Джулиан Кристофер,Мартин Роуч

Описание: Фильм «Колыбельная для Пи» рассказывает зрителю историю парня по имени Сэм, у которого умирает его любимая жена Жозефина. Сэму все становится безразлично. Он бросает бар, где выступал с концертами, и проводит ночи напролет в комнате отеля, где он впервые встретил свою жену. Консьерж гостиницы Джордж, его лучший друг и бессменный ангел-хранитель, решает хорошенько встряхнуть Сэма, устроив путаницу с ключами. Одним вечером расстроенная девушка врывается в комнату Сэма и запирается в ванной.

Качество: HDRip
Формат: AVI
Видео кодек: XviD
Аудио кодек: AC3
Видео: 720x304 (2.37:1), 25 fps, XviD build 50 ~1919 kbps avg, 0.35 bit/pixel
Аудио: 44.1 kHz, AC3 Dolby Digital, 2/0 (L,R) ch, ~192 kbps

скриншот   скриншот   скриншот   скриншот   скриншот  

Общее
Полное имя : H:\кино\Lullaby.for.Pi.2010.HDRip.avi
Формат : AVI
Формат/Информация : Audio Video Interleave
Размер файла : 1,45 Гбайт
Продолжительность : 1 ч. 38 м.
Общий поток : 2121 Кбит/сек
Программа кодирования : VirtualDubMod 1.5.10.3 | www.virtualdub-fr.org || (build 2550/release)
Библиотека кодирования : VirtualDubMod build 2550/release

Видео
Идентификатор : 0
Формат : MPEG-4 Visual
Профиль формата : Advanced Simple@L5
Параметр BVOP формата : 2
Параметр QPel формата : Нет
Параметр GMC формата : Без точки перехода
Параметр матрицы формата : Default (H.263)
Идентификатор кодека : XVID
Идентификатор кодека/Подсказка : XviD
Продолжительность : 1 ч. 38 м.
Битрейт : 1920 Кбит/сек
Ширина : 720 пикселей
Высота : 304 пикселя
Соотношение сторон : 2,35:1
Частота кадров : 25,000 кадров/сек
Цветовое пространство : YUV
Субдискретизация насыщенности : 4:2:0
Битовая глубина : 8 бит
Тип развёртки : Прогрессивная
Метод сжатия : С потерями
Бит/(Пиксели*Кадры) : 0.351
Размер потока : 1,32 Гбайт (90%)
Библиотека кодирования : XviD 1.2.1 (UTC 2008-12-04)

Аудио
Идентификатор : 1
Формат : AC-3
Формат/Информация : Audio Coding 3
Расширение режима : CM (complete main)
Параметр Endianness формата : Big
Идентификатор кодека : 2000
Продолжительность : 1 ч. 38 м.
Вид битрейта : Постоянный
Битрейт : 192 Кбит/сек
Каналы : 2 канала
Расположение каналов : Front: L R
Частота : 44,1 КГц
Битовая глубина : 16 бит
Метод сжатия : С потерями
Размер потока : 135 Мбайт (9%)
Выравнивание : Разделение по промежуткам
Продолжительность промежутка : 40 мс. (1,00 видеокадр)
Время предзагрузки промежутка : 500 мс.

pb.wtf



Скачать Колыбельная для Пи через торрент http://pic.kartinco.top/images/6/a2iqm.jpg Скачать фильм Колыбельная для Пи через торрент бесплантно в хорошем качестве Описание: Фильм «Колыбельная для Пи» рассказывает зрителю историю парня по имени Сэм, у которого умирает его любимая жена Жозефина. Сэму ... 10 10 2
Торрент: Зарегистрирован [2014-05-10 12:31] · скачан: 44 раз
Статус: √ проверено
Размер: 1.45 GB
Как cкачать? Как скачать Колыбельная для Пи через торрент | qTorrent

28-11-2019 20:33  

Отключить всю рекламу на сайте

    Дорогой пользователь! Огромная просьба, поблагодарите релизера, оцените раздачу и оставьте свои комментарий, если Вы скачали Колыбельная для Пи через торрент бесплатно! Внесите свою лепту в развитие PiratBit!
    Комментировать посты могут только пользователи прошедшие не сложную регистрацию
    Показать сообщения:    

    Колыбельная для Пи через торрент
    Скачать бесплатно Колыбельная для Пи
    Колыбельная для Пи скачать торрент
    Колыбельная для Пи смотреть онлайн
    Cкачать фильм Колыбельная для Пи бесплатно
    Колыбельная для Пи скачать торрент в хорошем качестве
    Колыбельная для Пи смотреть онлайн бесплатно в хорошем качестве


    Вы не можете начинать темы
    Вы не можете отвечать на сообщения
    Вы не можете редактировать свои сообщения
    Вы не можете удалять свои сообщения
    Вы не можете голосовать в опросах
    Вы не можете прикреплять файлы к сообщениям
    Вы можете скачивать файлы