2 сезон

iTunes

MVO

1

2 сезон

iTunes

iTunes

1 сезон

RePack

30

Новинка

ВАЖНО

ИГРА 18+

pack

RePack

MK11
pack

Легкие деньги

RePack

jed

RePack

fifa19

RePack

RDR2

RePack

NEED FOR SPEED™ PAYBACK

4 сезон

9 сезон

Бесстыжие 9 сезон

Все сериалы

все сериалы на PB.wtf

RePack

FAR CRY 5

Anonymous, добрый вечер, мы не успеваем собрать деньги на оплату серверов за декабрь и январь, помогите нам пожалуйста в это трудное время. В качестве благодарности мы отключим Вам всю рекламу на сайте (укажите свой ник в строку Ваше имя)!

×
  
Magnet ссылка

Мой будущий тесть – аферист / Lionhead (Томас Реннер) [2013 г., драма, комедия, криминал, WEB-DLRip, Профессиональный (многоголосый, закадровый)] pb.wtf

Мой будущий тесть – аферист через торрент pb.wtf

Размер: 1.37 GB | Добавлен: 6 лет 8 мес. назад | Торрент скачан:131 раз
Скачать  

06-10-2013 02:00 Мой будущий тесть – аферист Скачать торрент  

Мой будущий тесть – аферист / Lionhead
Год выпуска: 2013
Страна: США
Слоган: «A scam worth its weight in goldfish.»
Жанр: драма, комедия, криминал

Продолжительность: 01:36:00
Перевод: Профессиональный (многоголосый, закадровый)
Субтитры: Нет

Режиссер: Томми Реннер/Tommy Rennier
Сценарий: Крис Греньер/Chris Rennier
Продюсер: Рэйчел Скидмор / Rachel Skidmore, Дорис Хо / Doris Ho, Вера Мейер / Vera Meyer, Терри Рандаззо / Terry Randazzo, Steve Rennier

Трэвор Лиссауер (Frank Harrison), Брайан Перри (Ted Platt), Майкл Мэдсен (Walter Powell), Джилл Креншоу (Darlene Powell), Дэниэл Робак (Detective Heilman), Дирдри Лавджой (Detective Lundgren), Кэролайн Морахэн (Heather Platt), Рэй Уайз (Jimmy), Ричард Рили (Lawyer Bronowitz), Дуан Уайтакер (Phil), Кевин Бриф (Officer Bradley), Элизабет Мохэд (Paula Powell)

Фрэнк, молодой человек, отчаянно хочет жениться на своей подруге, Дарлин, против желания ее отца. Когда Фрэнк наследует большую сумму денег, он решает купить кольцо и сделать предложение. К сожалению, он покупает кольцо вместе с Тедом, мошенником - авантюристом. Родители невесты, быстро определяют подделку и грозятся разорвать помолвку. Фрэнку приходится находить различные ухищрения, чтобы свадьба состоялась.

Рейтинг
imdb.com: 6.20 (13)

Качество: WEB-DLRip
Формат: AVI
Видео кодек: XviD
Аудио кодек: AC3
Видео: 1838 Кбит/сек, 720*304 (2,35:1), в 25,000 кадров/сек
Аудио: 192 Кбит/сек, 48,0 КГц, 16 бит, 2 канала, AC-3





Общее
Кол-во : 284
Кол-во потоков такого типа : 1
Тип потока : General
Тип потока : Общее
Идентификатор типа потока : 0
Inform : AVI: 1,37 Гбайт, 1 ч. 36 м.
Кол-во видеопотоков : 1
Кол-во аудиопотоков : 1
Video_Format_List : MPEG-4 Visual
Video_Format_WithHint_List : MPEG-4 Visual (XviD)
Видеокодеки : XviD
Audio_Format_List : AC-3
Audio_Format_WithHint_List : AC-3
Аудиокодеки : AC3
Полное имя : H:ТОРРЕНТЫТесть.avi
Имя папки : H:ТОРРЕНТЫ
Имя файла : Тесть
Расширение : avi
Формат : AVI
Формат : AVI
Формат/Информация : Audio Video Interleave
Формат/Используется в : avi
Коммерческое название : AVI
Интернет-тип носителя : video/vnd.avi
Чередующаяся : Yes
Кодек : AVI
Кодек : AVI
Кодек/Информация : Audio Video Interleave
Кодек/Используется в : avi
Размер файла : 1468416000
Размер файла : 1,37 Гбайт
Размер файла : 1 Гбайт
Размер файла : 1,4 Гбайт
Размер файла : 1,37 Гбайт
Размер файла : 1,368 Гбайт
Продолжительность : 5760520
Продолжительность : 1 ч. 36 м.
Продолжительность : 1 ч. 36 м. 0 с. 520 мс.
Продолжительность : 1 ч. 36 м.
Продолжительность : 01:36:00.520
Общий поток : 2039283
Общий поток : 2039 Кбит/сек
Размер потока : 6995102
Размер потока : 6,67 Мбайт (0%)
Размер потока : 7 Мбайт
Размер потока : 6,7 Мбайт
Размер потока : 6,67 Мбайт
Размер потока : 6,671 Мбайт
Размер потока : 6,67 Мбайт (0%)
Пропорции потока : 0.00476
Дата файла : UTC 2013-10-06 01:22:42.566
Дата файла (местная) : 2013-10-06 08:22:42.566
Дата изменения файла : UTC 2013-10-06 01:35:05.974
Дата изменения файла (местная) : 2013-10-06 08:35:05.974
Программа кодирования : VirtualDubMod 1.5.10.3 | www.virtualdub-fr.org || (build 2550/release)
Библиотека кодирования : VirtualDubMod build 2550/release
Библиотека кодирования : VirtualDubMod build 2550/release

Видео
Кол-во : 263
Кол-во потоков такого типа : 1
Тип потока : Video
Тип потока : Видео
Идентификатор типа потока : 0
StreamOrder : 0
Inform : 1838 Кбит/сек, 720*304 (2,35:1), в 25,000 кадров/сек, MPEG-4 Visual (XviD) (Advanced Simple@L5) (BVOP2)
Идентификатор : 0
Идентификатор : 0
Формат : MPEG-4 Visual
Коммерческое название : MPEG-4 Visual
Профиль формата : Advanced Simple@L5
Настройки формата : BVOP2
Параметр BVOP формата : 2
Параметр BVOP формата : 2
Параметр QPel формата : No
Параметр QPel формата : Нет
Параметр GMC формата : 0
Параметр GMC формата : Без точки перехода
Параметр матрицы формата : Default (MPEG)
Параметр матрицы формата : Default (MPEG)
Интернет-тип носителя : video/MP4V-ES
Идентификатор кодека : XVID
Идентификатор кодека/Подсказка : XviD
Идентификатор кодека/Ссылка : http://mediaarea.net/XVID
Кодек : XVID
Кодек : XviD
Кодек/Семейство : MPEG-4V
Кодек/Информация : XviD project
Кодек/Ссылка : http://www.xvid.org/Downloads.15.0.html
Кодек/CC : XVID
Профиль кодека : Advanced Simple@L5
Настройки кодека : BVOP
Параметр пакетного потока данных кодека : No
Параметр BVOP кодека : Yes
Параметр QPel кодека : No
Параметр GMC кодека : 0
Параметр GMC кодека : Без точки перехода
Параметр матрицы кодека : Default (MPEG)
Продолжительность : 5760520
Продолжительность : 1 ч. 36 м.
Продолжительность : 1 ч. 36 м. 0 с. 520 мс.
Продолжительность : 1 ч. 36 м.
Продолжительность : 01:36:00.520
Битрейт : 1837568
Битрейт : 1838 Кбит/сек
Ширина : 720
Ширина : 720 пикселей
Высота : 304
Высота : 304 пикселя
Пропорции пикселя : 1.000
Соотношение сторон : 2.368
Соотношение сторон : 2,35:1
Частота кадров : 25.000
Частота кадров : 25,000 кадров/сек
Счётчик кадров : 144013
Разрешение : 8
Разрешение : 8 бит
Колориметрия : 4:2:0
Цветовое пространство : YUV
Субдискретизация насыщенности : 4:2:0
Битовая глубина : 8
Битовая глубина : 8 бит
Тип развёртки : Progressive
Тип развёртки : Прогрессивная
Переплетение : PPF
Переплетение : Прогрессивная
Метод сжатия : Lossy
Метод сжатия : С потерями
Бит/(Пиксели*Кадры) : 0.336
Задержка : 0
Задержка : 00:00:00.000
Размер потока : 1323168418
Размер потока : 1,23 Гбайт (90%)
Размер потока : 1 Гбайт
Размер потока : 1,2 Гбайт
Размер потока : 1,23 Гбайт
Размер потока : 1,232 Гбайт
Размер потока : 1,23 Гбайт (90%)
Пропорции потока : 0.90109
Библиотека кодирования : XviD0050
Библиотека кодирования : XviD 1.2.1 (UTC 2008-12-04)
Библиотека кодирования/Имя : XviD
Библиотека кодирования/Version : 1.2.1
Библиотека кодирования/Дата : UTC 2008-12-04

Аудио
Кол-во : 235
Кол-во потоков такого типа : 1
Тип потока : Audio
Тип потока : Аудио
Идентификатор типа потока : 0
StreamOrder : 1
Inform : 192 Кбит/сек, 48,0 КГц, 16 бит, 2 канала, AC-3
Идентификатор : 1
Идентификатор : 1
Формат : AC-3
Формат/Информация : Audio Coding 3
Коммерческое название : AC-3
Расширение режима : CM (complete main)
Параметр Endianness формата : Big
Идентификатор кодека : 2000
Кодек : AC3
Кодек : AC3
Кодек/Семейство : AC3
Кодек/Информация : Dolby AC3
Кодек/CC : 2000
Продолжительность : 5760520
Продолжительность : 1 ч. 36 м.
Продолжительность : 1 ч. 36 м. 0 с. 520 мс.
Продолжительность : 1 ч. 36 м.
Продолжительность : 01:36:00.520
Вид битрейта : CBR
Вид битрейта : Постоянный
Битрейт : 192000
Битрейт : 192 Кбит/сек
Каналы : 2
Каналы : 2 канала
Расположение каналов : Front: L R
Расположение каналов : 2/0/0
Частота : 48000
Частота : 48,0 КГц
Количество образцов : 276504960
Разрешение : 16
Разрешение : 16 бит
Битовая глубина : 16
Битовая глубина : 16 бит
Метод сжатия : Lossy
Метод сжатия : С потерями
Задержка : 0
Задержка : 00:00:00.000
Задержка в оригинале : Stream
Задержка в оригинале : 'Сырой' поток
Задержка видео : 0
Задержка видео : 0
Размер потока : 138252480
Размер потока : 132 Мбайт (9%)
Размер потока : 132 Мбайт
Размер потока : 132 Мбайт
Размер потока : 132 Мбайт
Размер потока : 131,8 Мбайт
Размер потока : 132 Мбайт (9%)
Пропорции потока : 0.09415
Выравнивание : Split
Выравнивание : Разделение по промежуткам
Продолжительность промежутка : 1.00
Продолжительность промежутка : 40
Продолжительность промежутка : 40 мс. (1,00 видеокадр)
Время предзагрузки промежутка : 500
Время предзагрузки промежутка : 500 мс.
bsid : 8
dialnorm : -31
dialnorm/String : -31 dB
dsurmod : 0
acmod : 2
lfeon : 0
dialnorm_Average : -31
dialnorm_Average/String : -31 dB
dialnorm_Minimum : -31
dialnorm_Minimum/String : -31 dB
dialnorm_Maximum : -31
dialnorm_Maximum/String : -31 dB
dialnorm_Count : 389



pb.wtf



Скачать Мой будущий тесть – аферист через торрент http://s019.radikal.ru/i639/1310/ad/61b7cbab7839.jpg Скачать фильм Мой будущий тесть – аферист через торрент бесплантно в хорошем качестве Год выпуска: 2013Страна: СШАСлоган: «A scam worth its weight in goldfish.»Жанр: драма, комедия, криминалПродолжительность: ... 9.5 10 15
Торрент: Зарегистрирован [2014-05-10 23:01] · скачан: 131 раз
Статус: √ проверено
Размер: 1.37 GB
Как cкачать? Как скачать Мой будущий тесть – аферист через торрент | UTorrent



Последний раз редактировалось: GEKADOL (2013-10-06 05:36), всего редактировалось 1 раз

28-11-2019 20:33  

Отключить всю рекламу на сайте

06-10-2013 05:24 Мой будущий тесть – аферист Скачать торрент  

Замените постер, а то упоминание других ресурсов запрещено.

О испрвлении сообщите в лс.pb.wtf



10-10-2013 12:01 Мой будущий тесть – аферист Скачать торрент  

Спасибо за раздачу конечно, но такую чушь давно не видел. Майкл Мэдсен "зачморился" по полной.pb.wtf



    Дорогой пользователь! Огромная просьба, поблагодарите релизера, оцените раздачу и оставьте свои комментарий, если Вы скачали Мой будущий тесть – аферист через торрент бесплатно! Внесите свою лепту в развитие PiratBit!
    Комментировать посты могут только пользователи прошедшие не сложную регистрацию
    Показать сообщения:    

    Мой будущий тесть – аферист через торрент
    Скачать бесплатно Мой будущий тесть – аферист
    Мой будущий тесть – аферист скачать торрент
    Мой будущий тесть – аферист смотреть онлайн
    Cкачать фильм Мой будущий тесть – аферист бесплатно
    Мой будущий тесть – аферист скачать торрент в хорошем качестве
    Мой будущий тесть – аферист смотреть онлайн бесплатно в хорошем качестве


    Вы не можете начинать темы
    Вы не можете отвечать на сообщения
    Вы не можете редактировать свои сообщения
    Вы не можете удалять свои сообщения
    Вы не можете голосовать в опросах
    Вы не можете прикреплять файлы к сообщениям
    Вы можете скачивать файлы