Ссылка на приватное зеркало нашего сайта всего за 1$. Внимание количество ограничено!!!

2 сезон

iTunes

1 сезон

1

iTunes

iTunes

iTunes

1 сезон

RePack

30

ИГРА 18+

pack

ВАЖНО

!!Акция!!

Alien_RageХит недели

RePack

MK11
pack

Забери бонус

RePack

jed

!!Акция!!

Alien_Rage

RePack

fifa19

RePack

Assassins Creed: Odyssey

RePack

NEED FOR SPEED™ PAYBACK

4 сезон

9 сезон

Бесстыжие 9 сезон

Все сериалы

все сериалы на PB.wtf

RePack

FAR CRY 5
  

Лего: Приключения Клатча Пауэрса / Lego: The Adventures of Clutch Powers ( (Ховард Э. Бэйкер / Howard E. Baker) [2010 г., мультфильм, боевик, WEB-DLRip, Дубляж, Лицензия] pb.wtf

Лего: Приключения Клатча Пауэрса через торрент pb.wtf

Размер: 1.45 GB | Добавлен: 6 лет 5 мес. назад | Торрент скачан:415 раз
Скачать  

11-05-2014 08:21 Лего: Приключения Клатча Пауэрса Скачать торрент  

Лего: Приключения Клатча Пауэрса / Lego: The Adventures of Clutch Powers (
Год выпуска: 2010
Страна: США
Жанр: мультфильм, боевик
Продолжительность: 01:21:37
Перевод: Дубляж, Лицензия [C DVD9-Ки]
Тип релиза: Лицензия
Субтитры: Русские,Английские (Форсированные Надписи) [В Раздаче]

Режиссер: Ховард Э. Бэйкер / Howard E. Baker
Продюссер: Дэвид Крэгнотти, Патрик Ганн, Джимми Иэннер
Сценарий: Том Роджерс, Джошуа Уэкслер

Для любой зрительской аудитории 0+



В ролях: Райан МакПартлин, Ивонн Страховски, Пол Майкл Глейзер, Роджер Роуз, Джефф Беннетт, Грегг Бергер, Стефан Кокс, Алекс Десерт, Крис Хардвик

Описание: Познакомьтесь с Клатчем Пауэрсом, лучшим строителем и исследователем во Вселенной LEGO, выполняющим самую опасную миссию в жизни. Удивительные приключения приводят Клатча и его команду экспертов LEGO из Города LEGO на планету-тюрьму Космической Полиции, где они переносятся в средневековый мир Ашлар.

Они должны помочь законному наследнику королевского трона найти мужество отвоевать свое королевство у злого волшебника Мэллока Малина. Способности героев к конструированию подвергнутся серьезному испытанию в битве с армией скелетов Мэллока.

Качество: WEB-DLRip
Формат: AVI
Видео кодек: XviD
Аудио кодек: AC3
Видео: 720x400 (1.80:1), 23.976 fps, XviD build 73 ~2158 kbps avg, 0.31 bit/pixel
Аудио#1: 48 kHz, AC3 Dolby Digital, 3/2 (L,C,R,l,r) + LFE ch, ~384.00 kbps avg
Аудио#2: 48 kHz, AC3 Dolby Digital, (L,R) ~192.00 kbps avg [ENG (Отдельно)] на Яндекс Диске
Размер: 1490 МБ / 1,45GB
Релиз от: Deadmauvlad
скриншот   скриншот   скриншот   скриншот   скриншот   скриншот   скриншот   скриншот  

Общее
Полное имя : D:\Рипы выкладка [Deadmauvlad]\Рипы готовые\Lego.The.Adventures.of.Clutch.Powers.2010.WEB-DLRip.Deadmauvlad\Lego.The.Adventures.of.Clutch.Powers.2010.WEB-DLRip.Deadmauvlad.avi
Формат : AVI
Формат/Информация : Audio Video Interleave
Размер файла : 1,45 Гбайт
Продолжительность : 1 ч. 21 м.
Общий поток : 2552 Кбит/сек
Название фильма : Lego.The.Adventures.of.Clutch.Powers.2010.WEB-DLRip.Deadmauvlad
Режиссёр : Deadmauvlad
Жанр : Семейный,Комедия,Фэнтези
Программа кодирования : VirtualDubMod 1.5.10.3 | www.virtualdub-fr.org || (build 2550/release)
Формат оригинала/Имя : Фильм
Правообладатель : Goldenshara
Примечание : Лицензия

Видео
Идентификатор : 0
Формат : MPEG-4 Visual
Профиль формата : Advanced Simple@L5
Параметр BVOP формата : 1
Параметр QPel формата : Нет
Параметр GMC формата : Без точки перехода
Параметр матрицы формата : Выборочная
Идентификатор кодека : XVID
Идентификатор кодека/Подсказка : XviD
Продолжительность : 1 ч. 21 м.
Битрейт : 2158 Кбит/сек
Ширина : 720 пикселей
Высота : 400 пикселей
Соотношение сторон : 16:9
Частота кадров : 23,976 кадра/сек
Цветовое пространство : YUV
Субдискретизация насыщенности : 4:2:0
Битовая глубина : 8 бит
Тип развёртки : Прогрессивная
Метод сжатия : С потерями
Бит/(Пиксели*Кадры) : 0.313
Размер потока : 1,23 Гбайт (85%)
Библиотека кодирования : XviD 73

Аудио
Идентификатор : 1
Формат : AC-3
Формат/Информация : Audio Coding 3
Расширение режима : CM (complete main)
Параметр Endianness формата : Big
Идентификатор кодека : 2000
Продолжительность : 1 ч. 21 м.
Вид битрейта : Постоянный
Битрейт : 384 Кбит/сек
Каналы : 6 каналов
Расположение каналов : Front: L C R, Side: L R, LFE
Частота : 48,0 КГц
Битовая глубина : 16 бит
Метод сжатия : С потерями
Размер потока : 224 Мбайт (15%)
Выравнивание : Разделение по промежуткам
Продолжительность промежутка : 42 мс. (1,00 видеокадр)
Время предзагрузки промежутка : 500 мс.

pb.wtf



Скачать Лего: Приключения Клатча Пауэрса через торрент http://pic.kartinco.top/images/6/cunqa.jpg Скачать фильм Лего: Приключения Клатча Пауэрса через торрент бесплантно в хорошем качестве Описание: Познакомьтесь с Клатчем Пауэрсом, лучшим строителем и исследователем во Вселенной LEGO, выполняющим самую опасную миссию в жизни. ... 10 10 12
Info! Золотая раздача, скачанное не засчитывается.
Торрент: Зарегистрирован [2014-05-11 08:21] · скачан: 415 раз
Статус: √ проверено
Размер: 1.45 GB
Как cкачать? Как скачать Лего: Приключения Клатча Пауэрса через торрент | qTorrent

% Раздел Тема Автор DL S | L
Иностранные мультфильмы [ 1.29 GB ] Лего: Клатча Пауэрса / Lego: The Adventures of Clutch Powers [2010 Анимационный мультфильм DVDRip-AVC] 2MVO + Original + Subs ACFIORENTINA Скачать
1 | 0
Иностранные мультфильмы [ 1.36 GB ] Лего: Клатча Пауэрса / Lego: The Adventures of Clutch Powers [2010 мультфильм DVDRip] SD Скачать
1 | 0

28-11-2019 20:33  

Отключить всю рекламу на сайте

    Дорогой пользователь! Огромная просьба, поблагодарите релизера, оцените раздачу и оставьте свои комментарий, если Вы скачали Лего: Приключения Клатча Пауэрса через торрент бесплатно! Внесите свою лепту в развитие PiratBit!
    Комментировать посты могут только пользователи прошедшие не сложную регистрацию
    Показать сообщения:    

    Лего: Приключения Клатча Пауэрса через торрент
    Скачать бесплатно Лего: Приключения Клатча Пауэрса
    Лего: Приключения Клатча Пауэрса скачать торрент
    Лего: Приключения Клатча Пауэрса смотреть онлайн
    Cкачать фильм Лего: Приключения Клатча Пауэрса бесплатно
    Лего: Приключения Клатча Пауэрса скачать торрент в хорошем качестве
    Лего: Приключения Клатча Пауэрса смотреть онлайн бесплатно в хорошем качестве


    Вы не можете начинать темы
    Вы не можете отвечать на сообщения
    Вы не можете редактировать свои сообщения
    Вы не можете удалять свои сообщения
    Вы не можете голосовать в опросах
    Вы не можете прикреплять файлы к сообщениям
    Вы можете скачивать файлы