Ссылка на приватное зеркало нашего сайта всего за 1$. Внимание количество ограничено!!!

2 сезон

iTunes

1 сезон

1

iTunes

iTunes

iTunes

1 сезон

RePack

30

ИГРА 18+

pack

ВАЖНО

!!Акция!!

Alien_RageХит недели

RePack

MK11
pack

Забери бонус

RePack

jed

!!Акция!!

Alien_Rage

RePack

fifa19

RePack

Assassins Creed: Odyssey

RePack

NEED FOR SPEED™ PAYBACK

4 сезон

9 сезон

Бесстыжие 9 сезон

Все сериалы

все сериалы на PB.wtf

RePack

FAR CRY 5
  

Феи: Загадка пиратского острова / The Pirate Fairy (Пегги Холмс) [2014 г., Мультфильм, Фэнтези, Детский, Приключения, BDRip, Дубляж, Лицензия] pb.wtf

Феи: Загадка пиратского острова через торрент pb.wtf

Размер: 747 MB | Добавлен: 6 лет 5 мес. назад | Торрент скачан:901 раз
Скачать  

11-05-2014 14:01 Феи: Загадка пиратского острова Скачать торрент  

Феи: Загадка пиратского острова / The Pirate Fairy
Год выпуска: 2014
Страна: США
Жанр: Мультфильм, Фэнтези, Детский, Приключения
Продолжительность: 01:18:05
Перевод: Дубляж, Лицензия
Тип релиза: Лицензия
Субтитры: нет

Режиссер: Пегги Холмс
Продюссер: Дженни Маджи-Кук, Джон Лассетер, Дженнифер Тэтер
Сценарий: Джеффри М. Ховард, Кейт Конделл, Джон Лассетер,

Премьера в мире: 13 февраля 2014, ...




В ролях: Кристина Хендрикс, Мэй Уитман, Том Хиддлстон, Памела Адлон, Анджела Бартис, Меган Хилти, Люси Лью, Рэйвен, Джим Каммингс, Кевин Майкл Ричардсон

Описание: История о Зарине, смышленой и амбициозной фее, собирающей пыльцу растений. Все начинается с того, что она похищает волшебную пыльцу фей…

Качество: BDRip исх.Tinker Bell and the Pirate Fairy (2014) 1080p BD-Remux HDClub
Формат: AVI
Видео кодек: XviD
Аудио кодек: MP3
Видео: 624x336 (1.86:1), 23.976 fps, XviD build 73 ~1200 kbps avg, 0.24 bit/pixel
Аудио#1: 48 kHz, MPEG Layer 3, 2 ch, ~128.00 kbps avg
Релиз от: Deadmauvlad
скриншот   скриншот   скриншот   скриншот   скриншот   скриншот   скриншот  

Общее
Полное имя : D:\Рипы выкладка [Deadmauvlad]\Рипы готовые\The Pirate Fairy.2014.D.BDRip.Deadmauvlad.avi
Формат : AVI
Формат/Информация : Audio Video Interleave
Размер файла : 747 Мбайт
Продолжительность : 1 ч. 18 м.
Общий поток : 1338 Кбит/сек
Название фильма : The Pirate Fairy.2014.D.BDRip.Deadmauvlad
Режиссёр : Deadmauvlad
Жанр : Genre_00+
Программа кодирования : VirtualDubMod 1.5.10.3 | www.virtualdub-fr.org || (build 2550/release)
Формат оригинала/Имя : Мультфильм
Правообладатель : Goldenshara
Примечание : Лицензия

Видео
Идентификатор : 0
Формат : MPEG-4 Visual
Профиль формата : Advanced Simple@L5
Параметр BVOP формата : 1
Параметр QPel формата : Нет
Параметр GMC формата : Без точки перехода
Параметр матрицы формата : Выборочная
Идентификатор кодека : XVID
Идентификатор кодека/Подсказка : XviD
Продолжительность : 1 ч. 18 м.
Битрейт : 1201 Кбит/сек
Ширина : 624 пикселя
Высота : 336 пикселей
Соотношение сторон : 1,85:1
Частота кадров : 23,976 кадра/сек
Цветовое пространство : YUV
Субдискретизация насыщенности : 4:2:0
Битовая глубина : 8 бит
Тип развёртки : Прогрессивная
Метод сжатия : С потерями
Бит/(Пиксели*Кадры) : 0.239
Размер потока : 671 Мбайт (90%)
Библиотека кодирования : XviD 73

Аудио
Идентификатор : 1
Формат : MPEG Audio
Версия формата : Version 1
Профиль формата : Layer 3
Идентификатор кодека : 55
Идентификатор кодека/Подсказка : MP3
Продолжительность : 1 ч. 18 м.
Вид битрейта : Постоянный
Битрейт : 128 Кбит/сек
Каналы : 2 канала
Частота : 48,0 КГц
Метод сжатия : С потерями
Размер потока : 71,5 Мбайт (10%)
Выравнивание : Соединение по промежуткам
Продолжительность промежутка : 42 мс. (1,00 видеокадр)
Время предзагрузки промежутка : 504 мс.
Библиотека кодирования : LAME3.99r
Настройки программы : -m s -V 4 -q 2 -lowpass 17 -b 128

pb.wtf



Скачать Феи: Загадка пиратского острова через торрент http://pic.kartinco.top/images/6/vmnck.jpg Скачать фильм Феи: Загадка пиратского острова через торрент бесплантно в хорошем качестве Описание: История о Зарине, смышленой и амбициозной фее, собирающей пыльцу растений. Все начинается с того, что она похищает волшебную ... 9.9 10 11
Торрент: Зарегистрирован [2014-05-11 14:01] · скачан: 901 раз
Статус: √ проверено
Размер: 747 MB
Как cкачать? Как скачать Феи: Загадка пиратского острова через торрент | qTorrent

% Раздел Тема Автор DL S | L
Иностранные мультфильмы [ 2.19 GB ] Феи: Загадка пиратского острова / The Pirate Fairy [2014 мультфильм детский BDRip ] coc900 Скачать
1 | 0
Зарубежные Мультфильмы (DVD) [ 5.69 GB ] Феи: Загадка пиратского острова / The Pirate Fairy [2014 мультфильм детский DVD9] R5 voovaz Скачать
1 | 0
Иностранные мультфильмы [ 1.46 GB ] Феи: Загадка пиратского острова / The Pirate Fairy [2014 Мультфильм детский BDRip-AVC] DUB potroks Скачать
1 | 0
Зарубежные Мультфильмы (BDRip 1080p, 720p, Blu-ray, BD-Remux) [ 3.38 GB ] Феи: Загадка пиратского острова / The Pirate Fairy [2014 Мультфильм детский BDRip 720p] DUB potroks Скачать
1 | 0
Зарубежные Мультфильмы (BDRip 1080p, 720p, Blu-ray, BD-Remux) [ 5.4 GB ] Феи: Загадка пиратского острова / The Pirate Fairy [2014 мультфильм детский BDRip 1080p] diletant Скачать
1 | 0
Зарубежные Мультфильмы (BDRip 1080p, 720p, Blu-ray, BD-Remux) [ 4.23 GB ] Феи: Загадка пиратского острова / The Pirate Fairy [2014 мультфильм детский BDRip 720p] diletant Скачать
1 | 0
Иностранные мультфильмы [ 1.37 GB ] Феи: Загадка пиратского острова / The Pirate Fairy [2014 мультфильм детский HDRip ] Seedtank Скачать
1 | 0

28-11-2019 20:33  

Отключить всю рекламу на сайте

11-05-2014 15:31 Феи: Загадка пиратского острова Скачать торрент  

Ктонить смотрел?pb.wtf



11-05-2014 16:54 Феи: Загадка пиратского острова Скачать торрент  

Миван писал(а):

Ктонить смотрел?

смотрел всей семьёй!!!очень красивый и смешной мультpb.wtf



12-05-2014 15:39 Феи: Загадка пиратского острова Скачать торрент  

ниче мультик посмотреть можно.Frozen мне конечно гораздо больше понравился.pb.wtf



    Дорогой пользователь! Огромная просьба, поблагодарите релизера, оцените раздачу и оставьте свои комментарий, если Вы скачали Феи: Загадка пиратского острова через торрент бесплатно! Внесите свою лепту в развитие PiratBit!
    Комментировать посты могут только пользователи прошедшие не сложную регистрацию
    Показать сообщения:    

    Феи: Загадка пиратского острова через торрент
    Скачать бесплатно Феи: Загадка пиратского острова
    Феи: Загадка пиратского острова скачать торрент
    Феи: Загадка пиратского острова смотреть онлайн
    Cкачать фильм Феи: Загадка пиратского острова бесплатно
    Феи: Загадка пиратского острова скачать торрент в хорошем качестве
    Феи: Загадка пиратского острова смотреть онлайн бесплатно в хорошем качестве


    Вы не можете начинать темы
    Вы не можете отвечать на сообщения
    Вы не можете редактировать свои сообщения
    Вы не можете удалять свои сообщения
    Вы не можете голосовать в опросах
    Вы не можете прикреплять файлы к сообщениям
    Вы можете скачивать файлы