Ссылка на приватное зеркало нашего сайта всего за 1$. Внимание количество ограничено!!!

2 сезон

iTunes

1 сезон

1

iTunes

iTunes

iTunes

1 сезон

RePack

30

ИГРА 18+

pack

ВАЖНО

!!Акция!!

Alien_RageХит недели

RePack

MK11
pack

Забери бонус

RePack

jed

!!Акция!!

Alien_Rage

RePack

fifa19

RePack

Assassins Creed: Odyssey

RePack

NEED FOR SPEED™ PAYBACK

4 сезон

9 сезон

Бесстыжие 9 сезон

Все сериалы

все сериалы на PB.wtf

RePack

FAR CRY 5
  

Ослепленный желаниями / Bedazzled (Харольд Рэмис / Harold Ramis) [2000, США, Германия, фэнтези, мелодрама, комедия, BDRip 720p,Профессиональный [Дубляж - Лицензия] pb.wtf

Ослепленный желаниями через торрент pb.wtf

Размер: 4.37 GB | Добавлен: 6 лет 5 мес. назад | Торрент скачан:122 раза
Скачать  

11-05-2014 19:38 Ослепленный желаниями Скачать торрент  

Ослепленный желаниями / Bedazzled
«У тебя есть лишь 7 желаний,Выбирай осторожно!!!»


  • Год выпуска: 2000
  • Страна: США, Германия
  • Жанр: фэнтези, мелодрама, комедия
  • Продолжительность: 01:33:05
  • Перевод: Профессиональный [Дубляж - Лицензия]
  • Субтитры: Rus/Eng
  • Режиссер: Харольд Рэмис / Harold Ramis
  • В ролях:

    Брендан Фрейзер (Elliot), Элизабет Херли (The Devil), Фрэнсис О’Коннор (Alison / Nicole), Мириам Шор (Carol / Penthouse Hostess), Орландо Джонс (Dan / Esteban / Beach Jock / Sportscaster / African Party Guest), Пол Адельштейн (Bob / Roberto / Beach Jock / Sportscaster / Lincoln Aide), Тоби Хасс (Jerry / Alejandro / Beach Jock / Sportscaster / Lance), Гэбриел Коссес (Elliot's Cellmate), Брайан Дойл-Мюррей (Priest), Джефф Дусетте (Desk Sergeant), Аарон Лустиг (Synedyne Supervisor), Рудольф Мартин (Raoul)

  • Описание:
    Дьявол еще никогда не был таким соблазнительным. В этот раз он принимает обличие распутной красотки, заставляющий любого мужчину броситься в объятия безумства. Неудачник-программист - лучший объект для вербовки.
    Объект продажи - бессмертная душа. Цена - 7 желаний. Но в этой жизни бесплатным бывает лишь сыр в мышеловке, каждая медаль имеет две стороны. Выполняя любое желание продажной души, дьявол не дает насладиться результатом. В мгновение ока жизнь программиста превращается в настоящий ад.

  • Рейтинг
    kinopoisk.ru: 7.408 (20 789)
    imdb.com: 5.90 (69 157)
    MPAA: PG-13 - Детям до 13 лет просмотр не желателен
  • Качество: BDRip 720p
  • Формат: MKV
  • Видео кодек: AVC
  • Аудио кодек: AC3
  • Видео: AVC, 1280x544 (2.35:1), 5892 kbps, 24 fps, 0,353 bpp
  • Аудио №1: русский / AC3 / 5.1 / 48 kHz / 384 kbps / 16 bit |ПроФи.Дуб|
    Аудио №2: английский / AC3 / 5.1 / 48 kHz / 448 kbps / 16 bit Original
  • Релиз от: ஐ-Best is the Best-ஐ
    General
    Unique ID : 216524239387115313657536624973630999051 (0xA2E50D37C36C725CB9936A0B97250A0B)
    Complete name : F:\Osleplennyj zhelanijami.BDRip.720p.mkv
    Format : Matroska
    Format version : Version 2
    File size : 4.37 GiB
    Duration : 1h 33mn
    Overall bit rate : 6 727 Kbps
    Movie name : = Ослепленный желаниями / Bedazzled BDRip 720p by SC Kosmos =
    Encoded date : UTC 2014-04-15 13:50:27
    Writing application : mkvmerge v3.3.0 ('Language') gebaut am Mar 24 2010 14:59:24
    Writing library : libebml v0.8.0 + libmatroska v0.9.0

    Video
    ID : 1
    Format : AVC
    Format/Info : Advanced Video Codec
    Format profile : High@L4.1
    Format settings, CABAC : Yes
    Format settings, ReFrames : 12 frames
    Codec ID : V_MPEG4/ISO/AVC
    Duration : 1h 33mn
    Bit rate : 5 892 Kbps
    Width : 1 280 pixels
    Height : 544 pixels
    Display aspect ratio : 2.35:1
    Frame rate : 24.000 fps
    Color space : YUV
    Chroma subsampling : 4:2:0
    Bit depth : 8 bits
    Scan type : Progressive
    Bits/(Pixel*Frame) : 0.353
    Stream size : 3.75 GiB (86%)
    Title : Ослепленный желаниями / Bedazzled BDRip 720p by SC Kosmos
    Writing library : x264 core 142 r2409 d6b4e63
    Encoding settings : cabac=1 / ref=12 / deblock=1:-2:-2 / analyse=0x3:0x113 / me=esa / subme=11 / psy=1 / psy_rd=1.00:0.00 / mixed_ref=1 / me_range=32 / chroma_me=1 / trellis=2 / 8x8dct=1 / cqm=0 / deadzone=21,11 / fast_pskip=0 / chroma_qp_offset=-2 / threads=12 / lookahead_threads=1 / sliced_threads=0 / nr=0 / decimate=1 / interlaced=0 / bluray_compat=0 / constrained_intra=0 / bframes=10 / b_pyramid=2 / b_adapt=1 / b_bias=0 / direct=3 / weightb=1 / open_gop=0 / weightp=2 / keyint=240 / keyint_min=24 / scenecut=40 / intra_refresh=0 / rc=2pass / mbtree=0 / bitrate=5892 / ratetol=1.0 / qcomp=0.60 / qpmin=0 / qpmax=69 / qpstep=4 / cplxblur=20.0 / qblur=0.5 / ip_ratio=1.40 / pb_ratio=1.30 / aq=1:1.00 / zones=125680,134047,b=0.25
    Language : English
    Default : No
    Forced : No

    Audio #1
    ID : 2
    Format : AC-3
    Format/Info : Audio Coding 3
    Mode extension : CM (complete main)
    Codec ID : A_AC3
    Duration : 1h 33mn
    Bit rate mode : Constant
    Bit rate : 384 Kbps
    Channel(s) : 6 channels
    Channel positions : Front: L C R, Side: L R, LFE
    Sampling rate : 48.0 KHz
    Bit depth : 16 bits
    Compression mode : Lossy
    Stream size : 256 MiB (6%)
    Title : Дубляж
    Language : Russian
    Default : Yes
    Forced : Yes

    Audio #2
    ID : 3
    Format : AC-3
    Format/Info : Audio Coding 3
    Mode extension : CM (complete main)
    Codec ID : A_AC3
    Duration : 1h 33mn
    Bit rate mode : Constant
    Bit rate : 448 Kbps
    Channel(s) : 6 channels
    Channel positions : Front: L C R, Side: L R, LFE
    Sampling rate : 48.0 KHz
    Bit depth : 16 bits
    Compression mode : Lossy
    Stream size : 298 MiB (7%)
    Language : English
    Default : No
    Forced : No

    Text #1
    ID : 4
    Format : UTF-8
    Codec ID : S_TEXT/UTF8
    Codec ID/Info : UTF-8 Plain Text
    Title : Форсированные ( на испанскую речь )
    Language : Russian
    Default : Yes
    Forced : Yes

    Text #2
    ID : 5
    Format : UTF-8
    Codec ID : S_TEXT/UTF8
    Codec ID/Info : UTF-8 Plain Text
    Title : Forced
    Language : English
    Default : No
    Forced : No

    Menu
    00:00:00.000 : en:00:00:00.000
    00:03:20.667 : en:00:03:20.667
    00:09:36.625 : en:00:09:36.625
    00:17:20.250 : en:00:17:20.250
    00:24:09.000 : en:00:24:09.000
    00:32:03.208 : en:00:32:03.208
    00:37:59.000 : en:00:37:59.000
    00:46:43.417 : en:00:46:43.417
    00:55:52.750 : en:00:55:52.750
    01:04:11.083 : en:01:04:11.083
    01:08:34.375 : en:01:08:34.375
    01:16:31.625 : en:01:16:31.625
    01:20:06.000 : en:01:20:06.000
    01:25:06.333 : en:01:25:06.333

    Скриншоты:


    pb.wtf



  • Скачать Ослепленный желаниями через торрент http://pic.kartinco.top/new/img/2014-05/11/rnb7pryukjq1dk8bpkwm1wymg.png Скачать фильм Ослепленный желаниями через торрент бесплантно в хорошем качестве Описание: Дьявол еще никогда не был таким соблазнительным. В этот раз он принимает обличие распутной красотки, заставляющий любого мужчину ... 10 10 10
    Торрент: Зарегистрирован [2014-05-11 19:38] · скачан: 122 раз
    Статус: √ проверено
    Размер: 4.37 GB
    Как cкачать? Как скачать Ослепленный желаниями через торрент | qTorrent

    % Раздел Тема Автор DL S | L
    Классика зарубежного кино [ 1.45 GB ] Ослеплённый желаниями / Bedazzled [1967 HDRip] [MVO] killermax2013 Скачать
    1 | 0
    Фильмы до 2000 г. [ 2.18 GB ] Ослепленный желаниями / Bedazzled [2000 DVDRip-AVC +Авторский одноголосный] killermax2013 Скачать
    1 | 0
    Фильмы до 2000 г. [ 1.37 GB ] Ослепленный желаниями / Bedazzled [2000 DVDRip] M@RCU$ Скачать
    1 | 0

    28-11-2019 20:33  

    Отключить всю рекламу на сайте

      Дорогой пользователь! Огромная просьба, поблагодарите релизера, оцените раздачу и оставьте свои комментарий, если Вы скачали Ослепленный желаниями через торрент бесплатно! Внесите свою лепту в развитие PiratBit!
      Комментировать посты могут только пользователи прошедшие не сложную регистрацию
      Показать сообщения:    

      Ослепленный желаниями через торрент
      Скачать бесплатно Ослепленный желаниями
      Ослепленный желаниями скачать торрент
      Ослепленный желаниями смотреть онлайн
      Cкачать фильм Ослепленный желаниями бесплатно
      Ослепленный желаниями скачать торрент в хорошем качестве
      Ослепленный желаниями смотреть онлайн бесплатно в хорошем качестве


      Вы не можете начинать темы
      Вы не можете отвечать на сообщения
      Вы не можете редактировать свои сообщения
      Вы не можете удалять свои сообщения
      Вы не можете голосовать в опросах
      Вы не можете прикреплять файлы к сообщениям
      Вы можете скачивать файлы