Ссылка на приватное зеркало нашего сайта всего за 1$. Внимание количество ограничено!!!

2 сезон

iTunes

1 сезон

1

iTunes

iTunes

iTunes

1 сезон

RePack

30

ИГРА 18+

pack

ВАЖНО

!!Акция!!

Alien_RageХит недели

RePack

MK11
pack

Забери бонус

RePack

jed

!!Акция!!

Alien_Rage

RePack

fifa19

RePack

Assassins Creed: Odyssey

RePack

NEED FOR SPEED™ PAYBACK

4 сезон

9 сезон

Бесстыжие 9 сезон

Все сериалы

все сериалы на PB.wtf

RePack

FAR CRY 5
  

Поспешишь, людей насмешишь / Fools Rush In (Энди Теннант / Andy Tennant) [1997, США, драма, мелодрама, комедия, BDRip 720p,Профессиональный (двухголосый) pb.wtf

Поспешишь, людей насмешишь через торрент pb.wtf

Размер: 4.37 GB | Добавлен: 6 лет 5 мес. назад | Торрент скачан:44 раза
Скачать  

12-05-2014 08:25 Поспешишь, людей насмешишь Скачать торрент  

Поспешишь, людей насмешишь / Fools Rush In
«An impulsive love story»


  • Год выпуска: 1997
  • Страна: США
  • Жанр: драма, мелодрама, комедия
  • Продолжительность: 01:44:33
  • Перевод: Профессиональный (двухголосый)
  • Субтитры: Eng
  • Режиссер: Энди Теннант / Andy Tennant
  • В ролях:

    Мэттью Перри (Alex Whitman), Сальма Хайек (Isabel Fuentes Whitman), Джон Тенни (Jeff), Карлос Гомес (Chuy), Томас Милиан (Tomas Fuentes), Шиван Фэллон (Lanie), Джон Беннет Перри (Richard Whitman), Стэнли ДеСантис (Judd Marshall), Сюзанн Снайдер (Cathy Stewart), Энн Бетанкорт (Amalia), Джилл Клейбёрг (Nan Whitman), Анджелина Торрес (Great Grandma)

  • Описание:
    Познакомившись с очаровательной Изабель, Апекс Уитман и не подозревал, что ночь страсти не пройдет бесследно, а станет началом любви. И когда Изабель сообщает, что ждет от него ребенка, Алекс принимает решение - жениться на девушке.
    Он не знает свою возлюбленную - но это не имеет для него большого значения, ведь он уверен, что любовь - это то чувство, которое приходит всего один раз в жизни.

  • Рейтинг
    kinopoisk.ru: 7.315 (3785)
    imdb.com: 6.00 (23 140)
    MPAA: PG-13 - Детям до 13 лет просмотр не желателен
  • Качество: BDRip 720p
  • Формат: MKV
  • Видео кодек: AVC
  • Аудио кодек: AC3
  • Видео: AVC, 1280x720 (16:9), 5409 kbps, 25 fps, 0,235 bpp
  • Аудио №1: русский / AC3 / 2.0 / 48 kHz / 192 kbps / 16 bit |Двух.ПроФи.|
    Аудио №2: английский / AC3 / 5.1 / 48 kHz / 384 kbps / 16 bit
  • Релиз от: ஐ-Best is the Best-ஐ
    General
    Unique ID : 241176213226572139493885991424560194167 (0xB570D95E23978EB4A119407AAF67E277)
    Complete name : F:\Fools Rush In.mkv
    Format : Matroska
    Format version : Version 2
    File size : 4.37 GiB
    Duration : 1h 44mn
    Overall bit rate : 5 986 Kbps
    Encoded date : UTC 2011-09-18 08:50:01
    Writing application : mkvmerge v4.9.1 ('Ich will') сборка от Jul 11 2011 23:53:15
    Writing library : libebml v1.2.1 + libmatroska v1.1.1

    Video
    ID : 1
    Format : AVC
    Format/Info : Advanced Video Codec
    Format profile : High@L4.1
    Format settings, CABAC : Yes
    Format settings, ReFrames : 9 frames
    Codec ID : V_MPEG4/ISO/AVC
    Duration : 1h 44mn
    Bit rate : 5 409 Kbps
    Width : 1 280 pixels
    Height : 720 pixels
    Display aspect ratio : 16:9
    Frame rate : 25.000 fps
    Color space : YUV
    Chroma subsampling : 4:2:0
    Bit depth : 8 bits
    Scan type : Progressive
    Bits/(Pixel*Frame) : 0.235
    Stream size : 3.86 GiB (88%)
    Writing library : x264 core 116 r2074 2641b9e
    Encoding settings : cabac=1 / ref=9 / deblock=1:-3:-3 / analyse=0x3:0x113 / me=umh / subme=10 / psy=1 / psy_rd=1.00:0.00 / mixed_ref=1 / me_range=32 / chroma_me=1 / trellis=2 / 8x8dct=1 / cqm=0 / deadzone=21,11 / fast_pskip=0 / chroma_qp_offset=-2 / threads=3 / sliced_threads=0 / nr=0 / decimate=1 / interlaced=0 / bluray_compat=0 / constrained_intra=0 / bframes=10 / b_pyramid=2 / b_adapt=2 / b_bias=0 / direct=3 / weightb=1 / open_gop=0 / weightp=2 / keyint=250 / keyint_min=25 / scenecut=40 / intra_refresh=0 / rc_lookahead=40 / rc=2pass / mbtree=1 / bitrate=5409 / ratetol=1.0 / qcomp=0.60 / qpmin=10 / qpmax=51 / qpstep=4 / cplxblur=20.0 / qblur=0.5 / vbv_maxrate=50000 / vbv_bufsize=50000 / nal_hrd=none / ip_ratio=1.40 / aq=1:1.00
    Language : English
    Default : Yes
    Forced : No

    Audio #1
    ID : 2
    Format : AC-3
    Format/Info : Audio Coding 3
    Mode extension : CM (complete main)
    Codec ID : A_AC3
    Duration : 1h 44mn
    Bit rate mode : Constant
    Bit rate : 192 Kbps
    Channel(s) : 2 channels
    Channel positions : Front: L R
    Sampling rate : 48.0 KHz
    Bit depth : 16 bits
    Compression mode : Lossy
    Stream size : 144 MiB (3%)
    Language : Russian
    Default : Yes
    Forced : No

    Audio #2
    ID : 3
    Format : AC-3
    Format/Info : Audio Coding 3
    Mode extension : CM (complete main)
    Codec ID : A_AC3
    Duration : 1h 44mn
    Bit rate mode : Constant
    Bit rate : 384 Kbps
    Channel(s) : 6 channels
    Channel positions : Front: L C R, Side: L R, LFE
    Sampling rate : 48.0 KHz
    Bit depth : 16 bits
    Compression mode : Lossy
    Stream size : 287 MiB (6%)
    Language : English
    Default : No
    Forced : No

    Text
    ID : 4
    Format : UTF-8
    Codec ID : S_TEXT/UTF8
    Codec ID/Info : UTF-8 Plain Text
    Language : English
    Default : Yes
    Forced : No

    Скриншоты:


    pb.wtf



  • Скачать Поспешишь, людей насмешишь через торрент http://pic.kartinco.top/new/img/2014-05/12/slpue7hb7na9jv0ebm5kqvruj.png Скачать фильм Поспешишь, людей насмешишь через торрент бесплантно в хорошем качестве Описание: Познакомившись с очаровательной Изабель, Апекс Уитман и не подозревал, что ночь страсти не пройдет бесследно, а станет началом ... 10 10 5
    Info! Серебряная раздача, засчитывается только 50% скачанного.
    Торрент: Зарегистрирован [2014-05-12 08:25] · скачан: 44 раз
    Статус: √ проверено
    Размер: 4.37 GB
    Как cкачать? Как скачать Поспешишь, людей насмешишь через торрент | qTorrent

    28-11-2019 20:33  

    Отключить всю рекламу на сайте

      Дорогой пользователь! Огромная просьба, поблагодарите релизера, оцените раздачу и оставьте свои комментарий, если Вы скачали Поспешишь, людей насмешишь через торрент бесплатно! Внесите свою лепту в развитие PiratBit!
      Комментировать посты могут только пользователи прошедшие не сложную регистрацию
      Показать сообщения:    

      Поспешишь, людей насмешишь через торрент
      Скачать бесплатно Поспешишь, людей насмешишь
      Поспешишь, людей насмешишь скачать торрент
      Поспешишь, людей насмешишь смотреть онлайн
      Cкачать фильм Поспешишь, людей насмешишь бесплатно
      Поспешишь, людей насмешишь скачать торрент в хорошем качестве
      Поспешишь, людей насмешишь смотреть онлайн бесплатно в хорошем качестве


      Вы не можете начинать темы
      Вы не можете отвечать на сообщения
      Вы не можете редактировать свои сообщения
      Вы не можете удалять свои сообщения
      Вы не можете голосовать в опросах
      Вы не можете прикреплять файлы к сообщениям
      Вы можете скачивать файлы