Мега распродажа FORZA HORIZON 4 ULTIMATE+ВСЕ DLC+ОНЛАЙН всего за 499р. 349 руб. (супер цена). Внимание количество ограничено!!!

iTunes

1+1

iTunes

мы

iTunes

1

1 сезон

Чернобыль

1 сезон

Ральф против интернета

Лицензия

ПШазам

8 сезон

Игра престолов

Лицензия

30
pack

ВАЖНО

!!Акция!!

Alien_RageХит недели

RePack

Resident Evil 21

ИГРА 18+

pack

RePack

Metro:Exodus

!!Акция!!

Alien_Rage

RePack

fifa19

RePack

Assassins Creed: Odyssey

RePack

NEED FOR SPEED™ PAYBACK

3 сезон

9 сезон

Бесстыжие 9 сезон

Все сериалы

все сериалы на PB.wtf

RePack

FAR CRY 5
Ребята, катастрофически не хватает 2730р. для оплаты серверов за ИЮНЬ (всвязи с блокировками трафик упал в 3 раза), 1-2р., выручайте.
  

ППС 2 / Патрульно-постовая служба / Сезон: 2 / 1-32 серия из 32 (Виктор Татарский) [ 2014 , Россия , детектив, криминал , SATRip ] pb.wtf

ППС 2 через торрент pb.wtf

Размер: 18.98 GB | Добавлен: 5 лет 1 мес. назад | Торрент скачан:220 раз
Скачать  

12-05-2014 10:30 ППС 2 Скачать торрент  

ППС 2
Год выпуска: 2014
Страна: Россия
Жанр: детектив, криминал
Продолжительность: ~00:43:25 (Серия)
Перевод: Не требуется
Субтитры: Нет
Режиссер: Виктор Татарский
Сценарий: Алексей Рыбин
Продюсер: Инесса Юрченко, Сергей Щеглов
Композитор: Виталий Муканяев
В ролях:
Игорь Вуколов, Андрей Кузнецов, Александр Мосолов (Григорий Алексеевич Мурашов), Сергей Горобченко, Егор Пазенко, Николай Чиндяйкин, Роман Агеев, Сергей Шкарбан (Гога), Виталий Кудрявцев, Елена Купрашевич, Никита Рогов, Инна Корнышева
Описание:
Экипаж Лукина, Сергеева и Дуброва, так же, как и в первом сезоне, работает «в поле» - в городе, где ежедневно происходят правонарушения разной степени опасности. Полицейские сталкиваются с бытовыми драками, убийствами, семейными разборками, с наркоманами и наркодилерами, квартирными ворами-домушниками, угонщиками машин, уличными хулиганами, пьяными, бомжами - в общем всем тем, что называется «изнанкой большого города».
В привычном коллективе появляется новое лицо - Константин Шансов - опер, работающий в отделе вместе со Слоновым и Мурашовым. Помимо мелких хулиганов и районных наркоторговцев у героев появляется серьёзный противник в лице бизнесмена Ильина, человека с криминальным прошлым.
Качество: SATRip
Формат: AVI
Видео кодек: XviD
Аудио кодек: MP3
Видео: 1798 Кбит/сек, 720*400 (16:9), в 25,000 кадров/сек, MPEG-4 Visual (XviD)
Аудио: 128 Кбит/сек, 48,0 КГц, 2 канала, MPEG Audio (MP3) Раздача ведётся путём добавления новых серийДобалены 29-32 серии (01.06.2014)Просьба перекачать торрент файл

Внимание! Раздача ведётся путём добавления новых серий; при каждом добавлении создётся новый торрент. Чтобы начать докачку новой серии, пользователям необходимо сделать следующее:
(1) остановить скачивание,
(2) удалить старый торрент у себя из клиента (старые серии удалять не надо),
(3) скачать новый торрент и запустить его у себя в клиенте вместо старого, при этом указать клиенту путь в старую папку куда и должно происходить скачивание новых серий.
Ваш клиент при этом должен произвести хеширование (проверку) старой папки (если не производит сам - помогите ему сделать это), и будет докачивать только те серии которых у вас ещё нет. Старые серии при этом не удаляются, а продолжают раздаваться!
Eсли вы уже удалили старые серии, то предотвратить повторную закачку старых серий можно, отжав галочку в соответсвующих местах при запуске нового торрента. По возможности, желательно не удалять старые серии как можно дольше чтобы релизёр не столько продолжал раздавать старые серии, а смог сконцентрироваться на новых.

Общее
Полное имя : H:\ТОРРЕНТЫ\ППС - 2\ППС - 2_1.avi
Формат : AVI
Формат/Информация : Audio Video Interleave
Размер файла : 601 Мбайт
Продолжительность : 43 м.
Общий поток : 1935 Кбит/сек
Программа кодирования : VirtualDubMod 1.5.10.3 | www.virtualdub-fr.org || (build 2550/release)
Библиотека кодирования : VirtualDub build 32507/release

Видео
Идентификатор : 0
Формат : MPEG-4 Visual
Профиль формата : Advanced Simple@L5
Параметр BVOP формата : 2
Параметр QPel формата : Нет
Параметр GMC формата : Без точки перехода
Параметр матрицы формата : Default (MPEG)
Идентификатор кодека : XVID
Идентификатор кодека/Подсказка : XviD
Продолжительность : 43 м.
Битрейт : 1798 Кбит/сек
Ширина : 720 пикселей
Высота : 400 пикселей
Соотношение сторон : 16:9
Частота кадров : 25,000 кадров/сек
Цветовое пространство : YUV
Субдискретизация насыщенности : 4:2:0
Битовая глубина : 8 бит
Тип развёртки : Прогрессивная
Метод сжатия : С потерями
Бит/(Пиксели*Кадры) : 0.250
Размер потока : 558 Мбайт (93%)
Библиотека кодирования : XviD 1.2.1 (UTC 2008-12-04)

Аудио
Идентификатор : 1
Формат : MPEG Audio
Версия формата : Version 1
Профиль формата : Layer 3
Режим : Joint stereo
Идентификатор кодека : 55
Идентификатор кодека/Подсказка : MP3
Продолжительность : 43 м.
Вид битрейта : Постоянный
Битрейт : 128 Кбит/сек
Каналы : 2 канала
Частота : 48,0 КГц
Метод сжатия : С потерями
Размер потока : 39,7 Мбайт (7%)
Выравнивание : Соединение по промежуткам
Продолжительность промежутка : 40 мс. (1,00 видеокадр)
Время предзагрузки промежутка : 504 мс.
Библиотека кодирования : LAME3.99r
Настройки программы : -m j -V 4 -q 2 -lowpass 17 -b 128

Общее
Полное имя : H:\ТОРРЕНТЫ\ППС - 2\ППС - 2_2.avi
Формат : AVI
Формат/Информация : Audio Video Interleave
Размер файла : 598 Мбайт
Продолжительность : 43 м.
Общий поток : 1938 Кбит/сек
Программа кодирования : VirtualDubMod 1.5.10.3 | www.virtualdub-fr.org || (build 2550/release)
Библиотека кодирования : VirtualDub build 32507/release

Видео
Идентификатор : 0
Формат : MPEG-4 Visual
Профиль формата : Advanced Simple@L5
Параметр BVOP формата : 2
Параметр QPel формата : Нет
Параметр GMC формата : Без точки перехода
Параметр матрицы формата : Default (MPEG)
Идентификатор кодека : XVID
Идентификатор кодека/Подсказка : XviD
Продолжительность : 43 м.
Битрейт : 1800 Кбит/сек
Ширина : 720 пикселей
Высота : 400 пикселей
Соотношение сторон : 16:9
Частота кадров : 25,000 кадров/сек
Цветовое пространство : YUV
Субдискретизация насыщенности : 4:2:0
Битовая глубина : 8 бит
Тип развёртки : Прогрессивная
Метод сжатия : С потерями
Бит/(Пиксели*Кадры) : 0.250
Размер потока : 556 Мбайт (93%)
Библиотека кодирования : XviD 1.2.1 (UTC 2008-12-04)

Аудио
Идентификатор : 1
Формат : MPEG Audio
Версия формата : Version 1
Профиль формата : Layer 3
Режим : Joint stereo
Идентификатор кодека : 55
Идентификатор кодека/Подсказка : MP3
Продолжительность : 43 м.
Вид битрейта : Постоянный
Битрейт : 128 Кбит/сек
Каналы : 2 канала
Частота : 48,0 КГц
Метод сжатия : С потерями
Размер потока : 39,5 Мбайт (7%)
Выравнивание : Соединение по промежуткам
Продолжительность промежутка : 40 мс. (1,00 видеокадр)
Время предзагрузки промежутка : 504 мс.
Библиотека кодирования : LAME3.99r
Настройки программы : -m j -V 4 -q 2 -lowpass 17 -b 128

скриншот   скриншот   скриншот   скриншот   скриншот   скриншот   скриншот   скриншот   скриншот   скриншот  

pb.wtf



Скачать ППС 2 через торрент http://pic.kartinco.top/images/6/2swaq.jpg Скачать фильм ППС 2 через торрент бесплантно в хорошем качестве Описание:Экипаж Лукина, Сергеева и Дуброва, так же, как и в первом сезоне, работает «в поле» - в городе, где ежедневно происходят ... 9.1 10 22
Info! Золотая раздача, скачанное не засчитывается.
Торрент: Зарегистрирован [2014-06-01 03:09] · скачан: 220 раз
Статус: √ проверено
Размер: 18.98 GB
Как cкачать? Как скачать ППС 2 через торрент | qTorrent



Последний раз редактировалось: GEKADOL (2014-06-01 03:08), всего редактировалось 20 раз(а)


>> Регистрируемся здесь <<






Отзывы и комментарии о схеме читаем и пишем здесь: ---> Отзывы и комментарии о схеме

Новые благодарочки в телеграм довольных пользователей:
скриншот   скриншот   скриншот   скриншот   скриншот

12-05-2014 11:13 ППС 2 Скачать торрент  

Если бы все полицаи в ППС были как в этом сериале....pb.wtf



21-05-2014 11:52 ППС 2 Скачать торрент  

Не че так сериал посмотреть можноpb.wtf



27-06-2014 15:36 ППС 2 Скачать торрент  

Darkkiller32 писал(а):

Если бы все полицаи в ППС были как в этом сериале....

Дааа может где ни будь они и есть
но фильм интересный сказка на ночь про полицейских самый раз!pb.wtf



04-07-2014 15:52 ППС 2 Скачать торрент  

фильм интересныйpb.wtf



    Дорогой пользователь! Огромная просьба, поблагодарите релизера, оцените раздачу и оставьте свои комментарий, если Вы скачали ППС 2 через торрент бесплатно! Внесите свою лепту в развитие PiratBit!
    Комментировать посты могут только пользователи прошедшие не сложную регистрацию
    Показать сообщения:    

    ППС 2 через торрент
    Скачать бесплатно ППС 2
    ППС 2 скачать торрент
    ППС 2 смотреть онлайн
    Cкачать фильм ППС 2 бесплатно
    ППС 2 скачать торрент в хорошем качестве
    ППС 2 смотреть онлайн бесплатно в хорошем качестве


    Вы не можете начинать темы
    Вы не можете отвечать на сообщения
    Вы не можете редактировать свои сообщения
    Вы не можете удалять свои сообщения
    Вы не можете голосовать в опросах
    Вы не можете прикреплять файлы к сообщениям
    Вы можете скачивать файлы