Ссылка на приватное зеркало нашего сайта всего за 1$. Внимание количество ограничено!!!

2 сезон

iTunes

1 сезон

1

2 сезон

2 сезон

iTunes

1 сезон

RePack

30

Новинка

ВАЖНО

ИГРА 18+

pack

RePack

MK11
pack

Забери бонус

RePack

jed

!!Акция!!

Alien_Rage

RePack

fifa19

RePack

Assassins Creed: Odyssey

RePack

NEED FOR SPEED™ PAYBACK

4 сезон

9 сезон

Бесстыжие 9 сезон

Все сериалы

все сериалы на PB.wtf

RePack

FAR CRY 5
  

Нарковойна / Du zhan (Джонни То / Johnnie To) [ 2012 , Китай, Гонконг , криминал , BDRemux 1080p ] VO pb.wtf

Нарковойна через торрент pb.wtf

Размер: 18.83 GB | Добавлен: 6 лет 6 мес. назад | Торрент скачан:24 раза
Скачать  

12-05-2014 10:43 Нарковойна Скачать торрент  


Информация о фильме
Название: Нарковойна
Оригинальное название: Du zhan (Drug War)
Год выхода: 2012
Страна: Китай, Гонконг, Hairun Movies & TV Group, Milky Way Image Company
Продолжительность: 01:46:29
Перевод: Любительский одноголосый
Субтитры: Русские, английские
Жанр: Криминал
Режиссер: Джонни То / Johnnie To
В ролях: Луис Ку, Сунь Хунлэй, И Хуан, Мишель Йе, Сиу-Фай Чунг, Уоллес Чунг, Тао Гуо, Ка Танг Лам, Сует Лам, Гуанджи Ли

Описание:
Капитан полиции Чжан Кто из отдела по борьбе с незаконным оборотом наркотиков, начинает допрос наркобарона по имени Тимми Чой после того как он был арестован. Чтобы избежать смертной казни, Чой обязуется раскрыть информацию о своих партнерах. Удастся ли ему запутать следствие и выйти сухим из воды или же ниточка оборвётся на середине...


MPAA: R - Лицам до 17 лет обязательно присутствие взрослого
Файл
Источник: Drug.War.2012.DUAL.COMPLETE.BLURAY-SMAHD
Качество: BDRemux 1080p
Формат: MKV
Видео кодек: H.264
Аудио кодек: AC3-DTS
Видео: AVC, 1920x1080 (16:9), 20910 kbps, 24 fps, 0,420 bpp
Аудио №1: русский / DTS / 5.1 / 48 kHz / 1510 kbps / 24 bit |den904|
Аудио №2: китайский / DTS-HD / 48 kHz / 2391 kbps / 16 bit
Навигация по главам: есть
Format : Matroska
Format version : Version 4 / Version 2
File size : 18.8 GiB
Duration : 1h 46mn
Overall bit rate mode : Variable
Overall bit rate : 25.3 Mbps
Encoded date : UTC 2014-05-10 12:11:36
Writing application : mkvmerge v6.8.0 ('Theme for Great Cities') 64bit built on Mar 2 2014 21:34:26
Writing library : libebml v1.3.0 + libmatroska v1.4.1

Video
ID : 1
Format : AVC
Format/Info : Advanced Video Codec
Format profile : High@L4.1
Format settings, CABAC : Yes
Format settings, ReFrames : 4 frames
Codec ID : V_MPEG4/ISO/AVC
Duration : 1h 46mn
Bit rate mode : Variable
Bit rate : 20.9 Mbps
Maximum bit rate : 35.0 Mbps
Width : 1 920 pixels
Height : 1 080 pixels
Display aspect ratio : 16:9
Frame rate : 24.000 fps
Color space : YUV
Chroma subsampling : 4:2:0
Bit depth : 8 bits
Scan type : Progressive
Bits/(Pixel*Frame) : 0.420
Stream size : 15.6 GiB (83%)
Default : Yes
Forced : No

Audio #1
ID : 2
Format : DTS
Format/Info : Digital Theater Systems
Codec ID : A_DTS
Duration : 1h 46mn
Bit rate mode : Constant
Bit rate : 1 510 Kbps
Channel(s) : 6 channels
Channel positions : Front: L C R, Side: L R, LFE
Sampling rate : 48.0 KHz
Bit depth : 24 bits
Compression mode : Lossy
Stream size : 1.12 GiB (6%)
Title : VO - den904
Language : Russian
Default : Yes
Forced : No

Audio #2
ID : 3
Format : DTS
Format/Info : Digital Theater Systems
Format profile : MA / Core
Codec ID : A_DTS
Duration : 1h 46mn
Bit rate mode : Variable
Bit rate : 2 392 Kbps / 1 510 Kbps
Channel(s) : 8 channels / 6 channels
Channel positions : Front: L C R, Side: L R, Back: L R, LFE / Front: L C R, Side: L R, LFE
Sampling rate : 48.0 KHz
Bit depth : 16 bits
Compression mode : Lossless / Lossy
Language : Chinese
Default : No
Forced : No

Text #1
ID : 4
Format : UTF-8
Codec ID : S_TEXT/UTF8
Codec ID/Info : UTF-8 Plain Text
Language : Russian
Default : No
Forced : No

Text #2
ID : 5
Format : UTF-8
Codec ID : S_TEXT/UTF8
Codec ID/Info : UTF-8 Plain Text
Language : English
Default : No
Forced : No

Menu
00:00:00.000 : en:00:00:00.000
00:06:57.000 : en:00:06:57.000
00:10:02.333 : en:00:10:02.333
00:14:01.542 : en:00:14:01.542
00:19:23.500 : en:00:19:23.500
00:25:38.333 : en:00:25:38.333
00:31:08.542 : en:00:31:08.542
00:36:40.208 : en:00:36:40.208
00:42:35.542 : en:00:42:35.542
00:47:40.375 : en:00:47:40.375
00:53:42.167 : en:00:53:42.167
00:57:52.292 : en:00:57:52.292
01:04:06.792 : en:01:04:06.792
01:10:32.125 : en:01:10:32.125
01:16:18.833 : en:01:16:18.833
01:19:31.750 : en:01:19:31.750
01:24:57.667 : en:01:24:57.667
01:30:50.042 : en:01:30:50.042
01:36:12.250 : en:01:36:12.250
01:42:22.833 : en:01:42:22.833
pb.wtf



Скачать Нарковойна через торрент http://pic.kartinco.top/new/img/2014-05/12/5ikv8y2v6qltjq13urw038rlw.jpg Скачать фильм Нарковойна через торрент бесплантно в хорошем качестве Описание: Капитан полиции Чжан Кто из отдела по борьбе с незаконным оборотом наркотиков, начинает допрос наркобарона по имени Тимми Чой ... 10 10 3
Info! Золотая раздача, скачанное не засчитывается.
Торрент: Зарегистрирован [2014-05-12 10:43] · скачан: 24 раз
Статус: √ проверено
Размер: 18.83 GB
Как cкачать? Как скачать Нарковойна через торрент | qTorrent

28-11-2019 20:33  

Отключить всю рекламу на сайте

    Дорогой пользователь! Огромная просьба, поблагодарите релизера, оцените раздачу и оставьте свои комментарий, если Вы скачали Нарковойна через торрент бесплатно! Внесите свою лепту в развитие PiratBit!
    Комментировать посты могут только пользователи прошедшие не сложную регистрацию
    Показать сообщения:    

    Нарковойна через торрент
    Скачать бесплатно Нарковойна
    Нарковойна скачать торрент
    Нарковойна смотреть онлайн
    Cкачать фильм Нарковойна бесплатно
    Нарковойна скачать торрент в хорошем качестве
    Нарковойна смотреть онлайн бесплатно в хорошем качестве


    Вы не можете начинать темы
    Вы не можете отвечать на сообщения
    Вы не можете редактировать свои сообщения
    Вы не можете удалять свои сообщения
    Вы не можете голосовать в опросах
    Вы не можете прикреплять файлы к сообщениям
    Вы можете скачивать файлы