Ссылка на приватное зеркало нашего сайта всего за 1$. Внимание количество ограничено!!!

2 сезон

iTunes

1 сезон

1

2 сезон

2 сезон

iTunes

1 сезон

RePack

30

Ultimate

ВАЖНО

ИГРА 18+

pack

RePack

MK11
pack

Забери бонус

RePack

jed

!!Акция!!

Alien_Rage

RePack

fifa19

RePack

Assassins Creed: Odyssey

RePack

NEED FOR SPEED™ PAYBACK

4 сезон

9 сезон

Бесстыжие 9 сезон

Все сериалы

все сериалы на PB.wtf

RePack

FAR CRY 5
  

Перл Харбор / Pearl Harbor (Майкл Бэй) [2001 г., Боевик, драма, мелодрама, военный, BD-Remux, Дубляж] pb.wtf

Перл Харбор через торрент pb.wtf

Размер: 28.99 GB | Добавлен: 6 лет 6 мес. назад | Торрент скачан:2 раза
Скачать  

12-05-2014 12:19 Перл Харбор Скачать торрент  

Перл Харбор / Pearl Harbor
Год выпуска: 2001
Страна: США
Жанр: Боевик, драма, мелодрама, военный
Продолжительность: 03:03:00
Перевод: Дубляж
Субтитры: Нет

Режиссер: Майкл Бэй
Продюссер: Майкл Бэй, Джерри Брукхаймер, Кенни Бейтс
Сценарий: Рэндалл Уоллес

Бюджет: $140 000 000
Премьера в мире: 21 мая 2001



В ролях: Бен Аффлек, Джош Хартнетт, Кейт Бэкинсейл, Куба Гудинг мл., Алек Болдуин, Дженнифер Гарнер, Уильям Фихтнер, Джон Войт, Том Сайзмор, Уильям Ли Скотт, Джэми Кинг, Дэн Эйкройд, Грег Зола, Ивен Бремнер

Описание: Мечты о полетах лучших друзей с детства Рэйфа и Дэнни сбываются, когда они становятся пилотами американской армии. В Европе разворачивается Вторая мировая война и Рэйф, не желая оставаться в стороне от военных событий, записывается в Британские королевские воздушные войска. Он покидает свою возлюбленную - медсестру американского флота Эвелин. Дэнни и Эвелин оказываются на спокойной военной базе Перл Харбор, в то время, как Рэйф рискует своей жизнью. Дэнни и Эвелин сближаются и влюбляются друг в друга, после тяжелой для них вести о смерти Рэйфа. Обычным воскресным утром 7 декабря 1941 года эскадроны японских военных самолетов совершают неожиданное и стремительное нападение на базу Перл Харбор. США, не принимавшие до этого дня участия во Второй мировой войне, вступают в войну после бессмысленной атаки японских эскадрилий...

Качество: BD-Remux
Формат: TS
Видео кодек: MPEG2
Аудио кодек: AC3
Видео: MPEG2, 1920x1080, 23,976 fps. AR 2.40:1 19.8 Mbps
Аудио#1: AC3 Dolby Digital, 640 Kbps, 6ch, 48000 Hz - rus, дубляж
Аудио#2: AC3 Dolby Digital, 640 Kbps, 6ch, 48000 Hz - eng




Общее
Идентификатор : 0 (0x0)
Полное имя : E:\Перл Харбор ~ Pearl Harbor (2001) BDRemux.ts
Формат : MPEG-TS
Размер файла : 29,0 Гбайт
Продолжительность : 3 ч. 3 м.
Режим общего битрейта : Переменный
Общий поток : 22,7 Мбит/сек

Видео
Идентификатор : 17 (0x11)
Идентификатор меню : 1 (0x1)
Формат : MPEG Video
Версия формата : Version 2
Профиль формата : Main@High
Параметр BVOP формата : Да
Параметр матрицы формата : По умолчанию
Параметр GOP формата : Variable
Идентификатор кодека : 2
Продолжительность : 3 ч. 3 м.
Вид битрейта : Переменный
Битрейт : 20,2 Мбит/сек
Максимальный битрейт : 40,0 Мбит/сек
Ширина : 1920 пикселей
Высота : 1080 пикселей
Соотношение сторон : 16:9
Частота кадров : 23,976 кадра/сек
Цветовое пространство : YUV
Субдискретизация насыщенности : 4:2:0
Битовая глубина : 8 бит
Тип развёртки : Прогрессивная
Метод сжатия : С потерями
Бит/(Пиксели*Кадры) : 0.407
TimeCode_FirstFrame : 00:59:59:00
TimeCode_Source : Group of pictures header
Размер потока : 25,9 Гбайт (89%)

Аудио #1
Идентификатор : 18 (0x12)
Идентификатор меню : 1 (0x1)
Формат : AC-3
Формат/Информация : Audio Coding 3
Расширение режима : CM (complete main)
Параметр Endianness формата : Big
Идентификатор кодека : 129
Продолжительность : 3 ч. 3 м.
Вид битрейта : Постоянный
Битрейт : 640 Кбит/сек
Каналы : 6 каналов
Расположение каналов : Front: L C R, Side: L R, LFE
Частота : 48,0 КГц
Битовая глубина : 16 бит
Метод сжатия : С потерями
Размер потока : 838 Мбайт (3%)

Аудио #2
Идентификатор : 19 (0x13)
Идентификатор меню : 1 (0x1)
Формат : AC-3
Формат/Информация : Audio Coding 3
Расширение режима : CM (complete main)
Параметр Endianness формата : Big
Идентификатор кодека : 129
Продолжительность : 3 ч. 3 м.
Вид битрейта : Постоянный
Битрейт : 640 Кбит/сек
Каналы : 6 каналов
Расположение каналов : Front: L C R, Side: L R, LFE
Частота : 48,0 КГц
Битовая глубина : 16 бит
Метод сжатия : С потерями
Размер потока : 838 Мбайт (3%)
pb.wtf



Скачать Перл Харбор через торрент http://pic.kartinco.top/images/6/otu3h.jpg Скачать фильм Перл Харбор через торрент бесплантно в хорошем качестве Описание: Мечты о полетах лучших друзей с детства Рэйфа и Дэнни сбываются, когда они становятся пилотами американской армии. В Европе ... 10 10 5
Info! Золотая раздача, скачанное не засчитывается.
Торрент: Зарегистрирован [2014-05-12 12:19] · скачан: 2 раз
Статус: √ проверено
Размер: 28.99 GB
Как cкачать? Как скачать Перл Харбор через торрент | qTorrent

% Раздел Тема Автор DL S | L
Фильмы [HD 720p, 1080p] (Хороший звук DUB, MVO) [ 5.1 GB ] Перл Харбор / Pearl Harbor [2001 военный BDRip 1080p-HEVC 10bit ] ADVOKAT69 Скачать
1 | 0
Фильмы (Blu-ray, BD-Remux, HDDVD) [ 42.65 GB ] Перл-Харбор / Pearl Harbor [2001 BDRemux 1080p] DUB + 2xMVO + 2xAVO sheker187 Скачать
1 | 1
Фильмы [HD 720p, 1080p] (Хороший звук DUB, MVO) [ 8.82 GB ] Перл Харбор / Pearl Harbor [2001 военный история BDRip 1080p HEVC ()] Мичман37 Скачать
1 | 0
Фильмы 2001-2005 [ 2.21 GB ] Перл Харбор / Pearl Harbor [2001 военный BDRip 1080p] Andruuha Скачать
1 | 0
Фильмы (BDRip, HDrip-AVC) (48-60 fps) [ 3.95 GB ] Перл-Харбор / Pearl Harbor [2001 BDRip-AVC 60fps Experimental Dub] от R.G. HD-Films Tiberiumsun69 Скачать
18 | 0
Фильмы [HD 720p, 1080p] (Хороший звук DUB, MVO) [ 12.99 GB ] Перл-Харбор / Pearl Harbor [2001 BDRip 720p от _denis_100 / NNNB] DUB 2xMVO 2xAVO _denis_100 Скачать
1 | 0
National Geographic [ 1.26 GB ] Секунды до катастрофы: Перл-Харбор / Seconds from disaster: Pearl Harbor [2011 Документальный война история исследование HDTVRip 720p ] schultz Скачать
1 | 0

28-11-2019 20:33  

Отключить всю рекламу на сайте

    Дорогой пользователь! Огромная просьба, поблагодарите релизера, оцените раздачу и оставьте свои комментарий, если Вы скачали Перл Харбор через торрент бесплатно! Внесите свою лепту в развитие PiratBit!
    Комментировать посты могут только пользователи прошедшие не сложную регистрацию
    Показать сообщения:    

    Перл Харбор через торрент
    Скачать бесплатно Перл Харбор
    Перл Харбор скачать торрент
    Перл Харбор смотреть онлайн
    Cкачать фильм Перл Харбор бесплатно
    Перл Харбор скачать торрент в хорошем качестве
    Перл Харбор смотреть онлайн бесплатно в хорошем качестве


    Вы не можете начинать темы
    Вы не можете отвечать на сообщения
    Вы не можете редактировать свои сообщения
    Вы не можете удалять свои сообщения
    Вы не можете голосовать в опросах
    Вы не можете прикреплять файлы к сообщениям
    Вы можете скачивать файлы