Ссылка на приватное зеркало всего за 1$. Внимание количество ограничено!!!

OK

1+1

iTunes

мы

OK

1

WEB-DLRip

Джокер

Пифагор

Ведьмак / The Witcher сериал

Лицензия

ПШазам

ОК

Оно 2

iTunes

30
pack

Вам бонус

ВАЖНО

!!Акция!!

Alien_RageХит недели

RePack

Resident Evil 21

ИГРА 18+

pack

RePack

jed

!!Акция!!

Alien_Rage

RePack

fifa19

RePack

Assassins Creed: Odyssey

RePack

NEED FOR SPEED™ PAYBACK

4 сезон

9 сезон

Бесстыжие 9 сезон

Все сериалы

все сериалы на PB.wtf

RePack

FAR CRY 5
  

Помпеи / Pompeii (Пол У. С. Андерсон / Paul W.S. Anderson) [2014, Канада, Германия, боевик, драма, мелодрама, HDRip,Профессиональный [Дубляж - Лицензия/ iTunes] pb.wtf

Помпеи через торрент pb.wtf

Размер: 1.37 GB | Добавлен: 5 лет 8 мес. назад | Торрент скачан:4892 раза
Скачать  

12-05-2014 20:08 Помпеи Скачать торрент  


Помпеи / Pompeii
«Некоторые истории пишутся кровью»

Год выпуска: 2014
Страна:Канада, Германия
Жанр:боевик, драма, мелодрама, приключения
Продолжительность:01:44:59
Перевод:Профессиональный [Дубляж - Лицензия/ iTunes]
Субтитры: Нет
Режиссер:Пол У. С. Андерсон / Paul W.S. Anderson

  • В ролях:

    Кит Харингтон (Milo), Эмили Браунинг (Cassia), Кифер Сазерленд (Corvus), Адевале Акинойе-Агбаже (Atticus), Джаред Харрис (Severus), Кэрри-Энн Мосс (Aurelia), Джессика Лукас (Ariadne), Саша Ройз (Proculus), Джо Пинг (Graecus), Карри Грэм (Bellator), Дилан Шомбинг (Young Milo), Максим Савариа (Biggest Thracian)

  • Описание:
    История любви раба Майло и благородной Кассии, обрученной с римским сенатором, на фоне извержения Везувия, которое навсегда стерло с лица земли древнеримский город Помпеи...

  • Мировая премьера:18 февраля 2014


      Качество: HDRip
      Формат: AVI
      Видео кодек: XviD
      Аудио кодек:AC3
      Видео: XviD, 720x304 (2.35:1), 1472 kbps, 23,976 fps, 0,281 bpp
      Аудио: AC3 / 5.1 / 48 kHz / 384 kbps / 16 bit


    Код:

    General
    Complete name                            : D:\Торенты\Pompei.2014.D.HDRip.1400Mb.avi
    Format                                   : AVI
    Format/Info                              : Audio Video Interleave
    File size                                : 1.37 GiB
    Duration                                 : 1h 44mn
    Overall bit rate                         : 1 866 Kbps
    Writing application                      : VirtualDubMod 1.5.10.2 (build 2540/release)
    Writing library                          : VirtualDubMod build 2540/release

    Video
    ID                                       : 0
    Format                                   : MPEG-4 Visual
    Format profile                           : Advanced Simple@L5
    Format settings, BVOP                    : 2
    Format settings, QPel                    : No
    Format settings, GMC                     : No warppoints
    Format settings, Matrix                  : Custom
    Codec ID                                 : XVID
    Codec ID/Hint                            : XviD
    Duration                                 : 1h 44mn
    Bit rate                                 : 1 473 Kbps
    Width                                    : 720 pixels
    Height                                   : 304 pixels
    Display aspect ratio                     : 2.35:1
    Frame rate                               : 23.976 fps
    Color space                              : YUV
    Chroma subsampling                       : 4:2:0
    Bit depth                                : 8 bits
    Scan type                                : Progressive
    Compression mode                         : Lossy
    Bits/(Pixel*Frame)                       : 0.281
    Stream size                              : 1.08 GiB (79%)
    Writing library                          : XviD 1.2.1 (UTC 2008-12-04)

    Audio
    ID                                       : 1
    Format                                   : AC-3
    Format/Info                              : Audio Coding 3
    Mode extension                           : CM (complete main)
    Codec ID                                 : 2000
    Duration                                 : 1h 44mn
    Bit rate mode                            : Constant
    Bit rate                                 : 384 Kbps
    Channel(s)                               : 6 channels
    Channel positions                        : Front: L C R, Side: L R, LFE
    Sampling rate                            : 48.0 KHz
    Bit depth                                : 16 bits
    Compression mode                         : Lossy
    Stream size                              : 288 MiB (21%)
    Alignment                                : Split accross interleaves
    Interleave, duration                     : 42 ms (1.00 video frame)
    Interleave, preload duration             : 500 ms

    Скриншоты:

    Каталог Новинок (Фильмы-трейлеры, Игры, Сериалы, Мультфильмы)

    © Оформление by Raven
    pb.wtf



  • Скачать Помпеи через торрент http://pic.kartinco.top/images/6/stazu.jpg Скачать фильм Помпеи через торрент бесплантно в хорошем качестве Описание:История любви раба Майло и благородной Кассии, обрученной с римским сенатором, на фоне извержения Везувия, которое навсегда стерло ... 9.8 10 100
    Info! Золотая раздача, скачанное не засчитывается.
    Торрент: Зарегистрирован [2014-05-12 20:08] · скачан: 4 892 раз
    Статус: √ проверено
    Размер: 1.37 GB
    Как cкачать? Как скачать Помпеи через торрент | qTorrent

    % Раздел Тема Автор DL S | L
    Документальные фильмы и телепередачи [ 1.75 GB ] Viasat History: Новые секреты Помпеи / Pompeii: New Secrets Revealed [2016 Документальный HDTVRip 1080p] Armstrong Скачать
    1 | 0
    Документальные фильмы и телепередачи [ 819 MB ] Viasat History: Новые секреты Помпеи / Pompeii: New Secrets Revealed [2016 Документальный HDTVRip] Armstrong Скачать
    1 | 0
    3D Видео (48-60 fps) [ 15.69 GB ] Помпеи / Pompeii [2014 Германия 3D BDRip 1080p / 60 FPSГоризонтальная анаморфная стереопара ] Tiberiumsun69 Скачать
    1 | 0
    Фильмы 2013 [DVDrip, WEB-DLRip, HDrip] [ 1.46 GB ] Помпеи / Pompeii [2013 HDRip-AVC White Smoke Скачать
    1 | 0
    Фильмы 2014 [DVDrip, WEB-DLRip, HDrip] [ 2.17 GB ] Помпеи / Pompeii [2014 BDRip ] coc900 Скачать
    1 | 0
    3D Фильмы [ 10.68 GB ] Помпеи 3D / Pompeii 3D [ 2014 Германия BDRip1080p ] DUB GEKADOL Скачать
    1 | 0
    Фильмы (Blu-ray, BD-Remux, HDDVD) [ 24.76 GB ] Помпеи / Pompeii [2014 BD-Remux ] Бумер Скачать
    1 | 0


    Последний раз редактировалось: Ворон (2014-10-03 15:31), всего редактировалось 1 раз

    28-11-2019 20:33  

    Отключить всю рекламу на сайте

    07-06-2014 16:55 Помпеи Скачать торрент  

    На удивление фильм понравился, на один раз конечно, но тем не менее, не жалею что посмотрел, а главное сколько знакомых лиц))pb.wtf



    06-07-2014 10:42 Помпеи Скачать торрент  

    Хороший фильм и качество хорошее.pb.wtf



    19-07-2014 10:07 Помпеи Скачать торрент  

    Переснять гладиатора не вышло.pb.wtf



    27-07-2014 16:44 Помпеи Скачать торрент  

    такое чувство, будто собирались снимать дешевый сериал, но денег не дали - и решили выпустить как фильмpb.wtf



    01-09-2014 19:50 Помпеи Скачать торрент  

    Фильм на разок посмотреть, но автору спасибо!pb.wtf



      Дорогой пользователь! Огромная просьба, поблагодарите релизера, оцените раздачу и оставьте свои комментарий, если Вы скачали Помпеи через торрент бесплатно! Внесите свою лепту в развитие PiratBit!
      Комментировать посты могут только пользователи прошедшие не сложную регистрацию
      Показать сообщения:    

      Помпеи через торрент
      Скачать бесплатно Помпеи
      Помпеи скачать торрент
      Помпеи смотреть онлайн
      Cкачать фильм Помпеи бесплатно
      Помпеи скачать торрент в хорошем качестве
      Помпеи смотреть онлайн бесплатно в хорошем качестве


      Вы не можете начинать темы
      Вы не можете отвечать на сообщения
      Вы не можете редактировать свои сообщения
      Вы не можете удалять свои сообщения
      Вы не можете голосовать в опросах
      Вы не можете прикреплять файлы к сообщениям
      Вы можете скачивать файлы